RuPauls.Drag.Race.S14E02.고화질.WEB.h264-SE > 외국티비
웹하드 가입에서 다운로드까지 어렵지 않아요~
웹하드 가입에서 다운로드까지 어렵지 않아요~
 [구글검색] 구글에서 더토렌트 검색 - 구글에서 토렌트를 검색하실 때에 검색어 뒤에 더토렌트를 꼭 붙여서 검색하세요.     사용자님의 다운로드가 완료될 때까지 저희가 함께하겠습니다. 편안하고 즐거운 시간 되십시오.

시작페이지

파일몽


[고화질] RuPauls.Drag.Race.S14E02.고화질.WEB.h264-SECRETOS 토렌트
  • 파일설명:     Screens... (click to enlarge): _z      ___/__       /        / ________      . //_______  /     ___/___ _____/ _/       /   /_/_/   /___/_      7  / ____/ _ / __ /   / > _        /______/   /          /__/ /    / \20 RuPauls.Drag.Race.S14E02.고화질.WEB.h264-SECRETOS .     https://www.tvmaze.com/shows/1526/rupauls-drag-race            . Date      : 2022-01-15 Video     : 고화질 29.970 FPS @ 2 556 kb/s Audio     : AAC LC @ 253 kb/s Language  : English Subtitles : Arabic / German / English / Spanish / French / In donesian / Italian / Japanese / Korean / Dutch / Portuguese / Chinese .    Size      : 1.20 GiB                                          . :    Duration  : 1 h 1 min                                         : :    Notes     :                                                   : _ __7__________________________________________________________________7__ _ - --/--------------------( SECRETOS // since 2018 )------------------/-- -Infolink -> https://www.imdb.com/title/tt1353056/Quote:MediainfoVideoID : 1Format : AVCFormat/Info : Advanced Video CodecFormat profile : [email protected]Format settings : CABAC / 5 Ref FramesFormat settings, CABAC : YesFormat settings, Reference frames : 5 framesCodec ID : V_MPEG4/ISO/AVCDuration : 1 h 1 minBit rate : 2 556 kb/sWidth : 1 280 pixelsHeight : 720 pixelsDisplay aspect ratio : 16:9Frame rate mode : ConstantFrame rate : 29.970 FPSColor space : YUVChroma subsampling : 4:2:0Bit depth : 8 bitsScan type : ProgressiveBits/(Pixel*Frame) : 0.093Stream size : 1.09 GiB (91%)Writing library : x264 core 164 r10 d9a19f0Encoding settings : cabac=1 / ref=5 / deblock=1:0:0 / analyse=0x3:0x113 / me=hex / subme=8 / psy=1 / psy_rd=1.00:0.00 / mixed_ref=1 / me_range=16 / chroma_me=1 / trellis=2 / 8x8dct=1 / cqm=0 / deadzone=21,11 / fast_pskip=1 / chroma_qp_offset=-2 / threads=22 / lookahead_threads=3 / sliced_threads=0 / nr=0 / decimate=1 / interlaced=0 / bluray_compat=0 / stitchable=1 / constrained_intra=0 / bframes=3 / b_pyramid=2 / b_adapt=2 / b_bias=0 / direct=3 / weightb=1 / open_gop=0 / weightp=2 / keyint=infinite / keyint_min=29 / scenecut=40 / intra_refresh=0 / rc_lookahead=50 / rc=crf / mbtree=1 / crf=20.0 / qcomp=0.60 / qpmin=5 / qpmax=69 / qpstep=4 / vbv_maxrate=2750 / vbv_bufsize=7500 / crf_max=0.0 / nal_hrd=none / filler=0 / ip_ratio=1.40 / aq=1:1.00Language : EnglishDefault : YesForced : NoColor range : LimitedColor primaries : BT.709Transfer characteristics : BT.709Matrix coefficients : BT.709AudioID : 2Format : AAC LCFormat/Info : Advanced Audio Codec Low ComplexityCodec ID : A_AAC-2Duration : 1 h 1 minBit rate : 253 kb/sChannel(s) : 2 channelsChannel layout : L RSampling rate : 48.0 kHzFrame rate : 46.875 FPS (1024 SPF)Compression mode : LossyStream size : 111 MiB (9%)Language : EnglishDefault : YesForced : NoText #1ID : 3Format : UTF-8Codec ID : S_TEXT/UTF8Codec ID/Info : UTF-8 Plain TextDuration : 1 h 1 minBit rate : 164 b/sCount of elements : 1665Stream size : 73.7 KiB (0%)Title : العربيةLanguage : ArabicDefault : NoForced : NoText #2ID : 4Format : UTF-8Codec ID : S_TEXT/UTF8Codec ID/Info : UTF-8 Plain TextDuration : 1 h 1 minBit rate : 125 b/sCount of elements : 1665Stream size : 56.3 KiB (0%)Title : DeutschLanguage : GermanDefault : NoForced : NoText #3ID : 5Format : UTF-8Codec ID : S_TEXT/UTF8Codec ID/Info : UTF-8 Plain TextDuration : 1 h 1 minBit rate : 110 b/sCount of elements : 1665Stream size : 49.4 KiB (0%)Title : EnglishLanguage : EnglishDefault : NoForced : NoText #4ID : 6Format : UTF-8Codec ID : S_TEXT/UTF8Codec ID/Info : UTF-8 Plain TextDuration : 1 h 1 minBit rate : 120 b/sCount of elements : 1665Stream size : 53.9 KiB (0%)Title : EspañolLanguage : SpanishDefault : NoForced : NoText #5ID : 7Format : UTF-8Codec ID : S_TEXT/UTF8Codec ID/Info : UTF-8 Plain TextDuration : 1 h 1 minBit rate : 130 b/sCount of elements : 1665Stream size : 58.7 KiB (0%)Title : FrançaisLanguage : FrenchDefault : NoForced : NoText #6ID : 8Format : UTF-8Codec ID : S_TEXT/UTF8Codec ID/Info : UTF-8 Plain TextDuration : 1 h 1 minBit rate : 123 b/sCount of elements : 1665Stream size : 55.5 KiB (0%)Title : IndonesiaLanguage : IndonesianDefault : NoForced : NoText #7ID : 9Format : UTF-8Codec ID : S_TEXT/UTF8Codec ID/Info : UTF-8 Plain TextDuration : 1 h 1 minBit rate : 117 b/sCount of elements : 1665Stream size : 52.9 KiB (0%)Title : ItalianoLanguage : ItalianDefault : NoForced : NoText #8ID : 10Format : UTF-8Codec ID : S_TEXT/UTF8Codec ID/Info : UTF-8 Plain TextDuration : 1 h 1 minBit rate : 163 b/sCount of elements : 1665Stream size : 73.3 KiB (0%)Title : 日本語Language : JapaneseDefault : NoForced : NoText #9ID : 11Format : UTF-8Codec ID : S_TEXT/UTF8Codec ID/Info : UTF-8 Plain TextDuration : 1 h 1 minBit rate : 143 b/sCount of elements : 1665Stream size : 64.5 KiB (0%)Title : 한국어Language : KoreanDefault : NoForced : NoText #10ID : 12Format : UTF-8Codec ID : S_TEXT/UTF8Codec ID/Info : UTF-8 Plain TextDuration : 1 h 1 minBit rate : 119 b/sCount of elements : 1665Stream size : 53.4 KiB (0%)Title : NederlandsLanguage : DutchDefault : NoForced : NoText #11ID : 13Format : UTF-8Codec ID : S_TEXT/UTF8Codec ID/Info : UTF-8 Plain TextDuration : 1 h 1 minBit rate : 121 b/sCount of elements : 1665Stream size : 54.5 KiB (0%)Title : PortuguêsLanguage : PortugueseDefault : NoForced : NoText #12ID : 14Format : UTF-8Codec ID : S_TEXT/UTF8Codec ID/Info : UTF-8 Plain TextDuration : 1 h 1 minBit rate : 118 b/sCount of elements : 1665Stream size : 53.0 KiB (0%)Title : 中文Language : ChineseDefault : NoForced : No RuPauls.Drag.Race.S14E02.고화질.WEB.h264-SECRETOS…
  • 인기 연관 검색어 구글 검색:    
  • 관련 자료(가나다순):    RuPauls Drag Race All Stars S05E01 REPACK WEB h264-SECRETOS ezt…    RuPauls Drag Race Vegas Revue S01E05 WEB-DL 초고화질-FN TGx ⭐
  • 관련 자료(시간순):    RuPauls Drag Race S12E14 480p x264-mSD eztv - 더토렌트    RuPauls Drag Race Untucked S14E03 고화질 WEB h264-SECRETOS
  • 같은 시각 자료:    AEW Rampage 2022 01 14 TNT 초고화질 WEB h264-HEEL [TJET]    Nancy.Drew.S03E11.WEBRip.x264-ION10

  직접 다운로드      무료 다운로드

[고화질] RuPauls.Drag.Race.S14E02.고화질.WEB.h264-SECRETOS > 외국티비

[고화질] RuPauls.Drag.Race.S14E02.고화질.WEB.h264-SECRETOS
  • RuPauls.Drag.Race.S14E02.고화질.WEB.h264-SECRETOS  로고   토렌트 링크 제공 서치엔진
  • RuPauls.Drag.Race.S14E02.고화질.WEB.h264-SECRETOS 로고   무료 다운로드
  • RuPauls.Drag.Race.S14E02.고화질.WEB.h264-SECRETOS 로고   토렌트의 최강자 토렌트씨
  • RuPauls.Drag.Race.S14E02.고화질.WEB.h264-SECRETOS 로고   빠른 열차에 탑승해 KTX토렌트
  • RuPauls.Drag.Race.S14E02.고화질.WEB.h264-SECRETOS 로고   초고속 다운로드
  • RuPauls.Drag.Race.S14E02.고화질.WEB.h264-SECRETOS 로고   인기 콘텐츠 공유 토렌트모바일
  • RuPauls.Drag.Race.S14E02.고화질.WEB.h264-SECRETOS 로고   토렌트 트윈터보 토렌트티티
  • Screens... (click to enlarge): _z      ___/__       /        / ________      . //_______  /     ___/___ _____/ _/       /   /_/_/   /___/_      7  / ____/ _ / __ /   / > _        /______/   /          /__/ /    / \20 RuPauls.Drag.Race.S14E02.고화질.WEB.h264-SECRETOS .     https://www.tvmaze.com/shows/1526/rupauls-drag-race            . Date      : 2022-01-15 Video     : 고화질 29.970 FPS @ 2 556 kb/s Audio     : AAC LC @ 253 kb/s Language  : English Subtitles : Arabic / German / English / Spanish / French / In donesian / Italian / Japanese / Korean / Dutch / Portuguese / Chinese .    Size      : 1.20 GiB                                          . :    Duration  : 1 h 1 min                                         : :    Notes     :                                                   : _ __7__________________________________________________________________7__ _ - --/--------------------( SECRETOS // since 2018 )------------------/-- -Infolink -> https://www.imdb.com/title/tt1353056/Quote:MediainfoVideoID : 1Format : AVCFormat/Info : Advanced Video CodecFormat profile : [email protected]Format settings : CABAC / 5 Ref FramesFormat settings, CABAC : YesFormat settings, Reference frames : 5 framesCodec ID : V_MPEG4/ISO/AVCDuration : 1 h 1 minBit rate : 2 556 kb/sWidth : 1 280 pixelsHeight : 720 pixelsDisplay aspect ratio : 16:9Frame rate mode : ConstantFrame rate : 29.970 FPSColor space : YUVChroma subsampling : 4:2:0Bit depth : 8 bitsScan type : ProgressiveBits/(Pixel*Frame) : 0.093Stream size : 1.09 GiB (91%)Writing library : x264 core 164 r10 d9a19f0Encoding settings : cabac=1 / ref=5 / deblock=1:0:0 / analyse=0x3:0x113 / me=hex / subme=8 / psy=1 / psy_rd=1.00:0.00 / mixed_ref=1 / me_range=16 / chroma_me=1 / trellis=2 / 8x8dct=1 / cqm=0 / deadzone=21,11 / fast_pskip=1 / chroma_qp_offset=-2 / threads=22 / lookahead_threads=3 / sliced_threads=0 / nr=0 / decimate=1 / interlaced=0 / bluray_compat=0 / stitchable=1 / constrained_intra=0 / bframes=3 / b_pyramid=2 / b_adapt=2 / b_bias=0 / direct=3 / weightb=1 / open_gop=0 / weightp=2 / keyint=infinite / keyint_min=29 / scenecut=40 / intra_refresh=0 / rc_lookahead=50 / rc=crf / mbtree=1 / crf=20.0 / qcomp=0.60 / qpmin=5 / qpmax=69 / qpstep=4 / vbv_maxrate=2750 / vbv_bufsize=7500 / crf_max=0.0 / nal_hrd=none / filler=0 / ip_ratio=1.40 / aq=1:1.00Language : EnglishDefault : YesForced : NoColor range : LimitedColor primaries : BT.709Transfer characteristics : BT.709Matrix coefficients : BT.709AudioID : 2Format : AAC LCFormat/Info : Advanced Audio Codec Low ComplexityCodec ID : A_AAC-2Duration : 1 h 1 minBit rate : 253 kb/sChannel(s) : 2 channelsChannel layout : L RSampling rate : 48.0 kHzFrame rate : 46.875 FPS (1024 SPF)Compression mode : LossyStream size : 111 MiB (9%)Language : EnglishDefault : YesForced : NoText #1ID : 3Format : UTF-8Codec ID : S_TEXT/UTF8Codec ID/Info : UTF-8 Plain TextDuration : 1 h 1 minBit rate : 164 b/sCount of elements : 1665Stream size : 73.7 KiB (0%)Title : العربيةLanguage : ArabicDefault : NoForced : NoText #2ID : 4Format : UTF-8Codec ID : S_TEXT/UTF8Codec ID/Info : UTF-8 Plain TextDuration : 1 h 1 minBit rate : 125 b/sCount of elements : 1665Stream size : 56.3 KiB (0%)Title : DeutschLanguage : GermanDefault : NoForced : NoText #3ID : 5Format : UTF-8Codec ID : S_TEXT/UTF8Codec ID/Info : UTF-8 Plain TextDuration : 1 h 1 minBit rate : 110 b/sCount of elements : 1665Stream size : 49.4 KiB (0%)Title : EnglishLanguage : EnglishDefault : NoForced : NoText #4ID : 6Format : UTF-8Codec ID : S_TEXT/UTF8Codec ID/Info : UTF-8 Plain TextDuration : 1 h 1 minBit rate : 120 b/sCount of elements : 1665Stream size : 53.9 KiB (0%)Title : EspañolLanguage : SpanishDefault : NoForced : NoText #5ID : 7Format : UTF-8Codec ID : S_TEXT/UTF8Codec ID/Info : UTF-8 Plain TextDuration : 1 h 1 minBit rate : 130 b/sCount of elements : 1665Stream size : 58.7 KiB (0%)Title : FrançaisLanguage : FrenchDefault : NoForced : NoText #6ID : 8Format : UTF-8Codec ID : S_TEXT/UTF8Codec ID/Info : UTF-8 Plain TextDuration : 1 h 1 minBit rate : 123 b/sCount of elements : 1665Stream size : 55.5 KiB (0%)Title : IndonesiaLanguage : IndonesianDefault : NoForced : NoText #7ID : 9Format : UTF-8Codec ID : S_TEXT/UTF8Codec ID/Info : UTF-8 Plain TextDuration : 1 h 1 minBit rate : 117 b/sCount of elements : 1665Stream size : 52.9 KiB (0%)Title : ItalianoLanguage : ItalianDefault : NoForced : NoText #8ID : 10Format : UTF-8Codec ID : S_TEXT/UTF8Codec ID/Info : UTF-8 Plain TextDuration : 1 h 1 minBit rate : 163 b/sCount of elements : 1665Stream size : 73.3 KiB (0%)Title : 日本語Language : JapaneseDefault : NoForced : NoText #9ID : 11Format : UTF-8Codec ID : S_TEXT/UTF8Codec ID/Info : UTF-8 Plain TextDuration : 1 h 1 minBit rate : 143 b/sCount of elements : 1665Stream size : 64.5 KiB (0%)Title : 한국어Language : KoreanDefault : NoForced : NoText #10ID : 12Format : UTF-8Codec ID : S_TEXT/UTF8Codec ID/Info : UTF-8 Plain TextDuration : 1 h 1 minBit rate : 119 b/sCount of elements : 1665Stream size : 53.4 KiB (0%)Title : NederlandsLanguage : DutchDefault : NoForced : NoText #11ID : 13Format : UTF-8Codec ID : S_TEXT/UTF8Codec ID/Info : UTF-8 Plain TextDuration : 1 h 1 minBit rate : 121 b/sCount of elements : 1665Stream size : 54.5 KiB (0%)Title : PortuguêsLanguage : PortugueseDefault : NoForced : NoText #12ID : 14Format : UTF-8Codec ID : S_TEXT/UTF8Codec ID/Info : UTF-8 Plain TextDuration : 1 h 1 minBit rate : 118 b/sCount of elements : 1665Stream size : 53.0 KiB (0%)Title : 中文Language : ChineseDefault : NoForced : No RuPauls.Drag.Race.S14E02.고화질.WEB.h264-SECRETOS…

Screens... (click to enlarge):





_z      ___/__       /        / ________      . //_______  /     ___/___

_____/ _/       /   /_/_/   /___/_      7  / ____/ _ / __ /   /

<+----//  ____/---.      /   /   /  __/---/  / /   //________/---+>>
_        /______/   /          /__/ /    / \20

RuPauls.Drag.Race.S14E02.고화질.WEB.h264-SECRETOS
.     https://www.tvmaze.com/shows/1526/rupauls-drag-race            .

Date      : 2022-01-15
Video     : 고화질 29.970 FPS @ 2 556 kb/s
Audio     : AAC LC @ 253 kb/s
Language  : English
Subtitles : Arabic / German / English / Spanish / French / In
donesian / Italian / Japanese / Korean / Dutch /
Portuguese / Chinese
.    Size      : 1.20 GiB                                          .
:    Duration  : 1 h 1 min                                         :

:    Notes     :                                                   :
_ __7__________________________________________________________________7__ _

- --/--------------------( SECRETOS // since 2018 )------------------/-- -

Infolink -> https://www.imdb.com/title/tt1353056/

Quote:

Mediainfo
Video
ID : 1
Format : AVC
Format/Info : Advanced Video Codec
Format profile : [email protected]
Format settings : CABAC / 5 Ref Frames
Format settings, CABAC : Yes
Format settings, Reference frames : 5 frames
Codec ID : V_MPEG4/ISO/AVC
Duration : 1 h 1 min
Bit rate : 2 556 kb/s
Width : 1 280 pixels
Height : 720 pixels
Display aspect ratio : 16:9
Frame rate mode : Constant
Frame rate : 29.970 FPS
Color space : YUV
Chroma subsampling : 4:2:0
Bit depth : 8 bits
Scan type : Progressive
Bits/(Pixel*Frame) : 0.093
Stream size : 1.09 GiB (91%)
Writing library : x264 core 164 r10 d9a19f0
Encoding settings : cabac=1 / ref=5 / deblock=1:0:0 / analyse=0x3:0x113 / me=hex / subme=8 / psy=1 / psy_rd=1.00:0.00 / mixed_ref=1 / me_range=16 / chroma_me=1 / trellis=2 / 8x8dct=1 / cqm=0 / deadzone=21,11 / fast_pskip=1 / chroma_qp_offset=-2 / threads=22 / lookahead_threads=3 / sliced_threads=0 / nr=0 / decimate=1 / interlaced=0 / bluray_compat=0 / stitchable=1 / constrained_intra=0 / bframes=3 / b_pyramid=2 / b_adapt=2 / b_bias=0 / direct=3 / weightb=1 / open_gop=0 / weightp=2 / keyint=infinite / keyint_min=29 / scenecut=40 / intra_refresh=0 / rc_lookahead=50 / rc=crf / mbtree=1 / crf=20.0 / qcomp=0.60 / qpmin=5 / qpmax=69 / qpstep=4 / vbv_maxrate=2750 / vbv_bufsize=7500 / crf_max=0.0 / nal_hrd=none / filler=0 / ip_ratio=1.40 / aq=1:1.00
Language : English
Default : Yes
Forced : No
Color range : Limited
Color primaries : BT.709
Transfer characteristics : BT.709
Matrix coefficients : BT.709

Audio
ID : 2
Format : AAC LC
Format/Info : Advanced Audio Codec Low Complexity
Codec ID : A_AAC-2
Duration : 1 h 1 min
Bit rate : 253 kb/s
Channel(s) : 2 channels
Channel layout : L R
Sampling rate : 48.0 kHz
Frame rate : 46.875 FPS (1024 SPF)
Compression mode : Lossy
Stream size : 111 MiB (9%)
Language : English
Default : Yes
Forced : No

Text #1
ID : 3
Format : UTF-8
Codec ID : S_TEXT/UTF8
Codec ID/Info : UTF-8 Plain Text
Duration : 1 h 1 min
Bit rate : 164 b/s
Count of elements : 1665
Stream size : 73.7 KiB (0%)
Title : العربية
Language : Arabic
Default : No
Forced : No

Text #2
ID : 4
Format : UTF-8
Codec ID : S_TEXT/UTF8
Codec ID/Info : UTF-8 Plain Text
Duration : 1 h 1 min
Bit rate : 125 b/s
Count of elements : 1665
Stream size : 56.3 KiB (0%)
Title : Deutsch
Language : German
Default : No
Forced : No

Text #3
ID : 5
Format : UTF-8
Codec ID : S_TEXT/UTF8
Codec ID/Info : UTF-8 Plain Text
Duration : 1 h 1 min
Bit rate : 110 b/s
Count of elements : 1665
Stream size : 49.4 KiB (0%)
Title : English
Language : English
Default : No
Forced : No

Text #4
ID : 6
Format : UTF-8
Codec ID : S_TEXT/UTF8
Codec ID/Info : UTF-8 Plain Text
Duration : 1 h 1 min
Bit rate : 120 b/s
Count of elements : 1665
Stream size : 53.9 KiB (0%)
Title : Español
Language : Spanish
Default : No
Forced : No

Text #5
ID : 7
Format : UTF-8
Codec ID : S_TEXT/UTF8
Codec ID/Info : UTF-8 Plain Text
Duration : 1 h 1 min
Bit rate : 130 b/s
Count of elements : 1665
Stream size : 58.7 KiB (0%)
Title : Français
Language : French
Default : No
Forced : No

Text #6
ID : 8
Format : UTF-8
Codec ID : S_TEXT/UTF8
Codec ID/Info : UTF-8 Plain Text
Duration : 1 h 1 min
Bit rate : 123 b/s
Count of elements : 1665
Stream size : 55.5 KiB (0%)
Title : Indonesia
Language : Indonesian
Default : No
Forced : No

Text #7
ID : 9
Format : UTF-8
Codec ID : S_TEXT/UTF8
Codec ID/Info : UTF-8 Plain Text
Duration : 1 h 1 min
Bit rate : 117 b/s
Count of elements : 1665
Stream size : 52.9 KiB (0%)
Title : Italiano
Language : Italian
Default : No
Forced : No

Text #8
ID : 10
Format : UTF-8
Codec ID : S_TEXT/UTF8
Codec ID/Info : UTF-8 Plain Text
Duration : 1 h 1 min
Bit rate : 163 b/s
Count of elements : 1665
Stream size : 73.3 KiB (0%)
Title : 日本語
Language : Japanese
Default : No
Forced : No

Text #9
ID : 11
Format : UTF-8
Codec ID : S_TEXT/UTF8
Codec ID/Info : UTF-8 Plain Text
Duration : 1 h 1 min
Bit rate : 143 b/s
Count of elements : 1665
Stream size : 64.5 KiB (0%)
Title : 한국어
Language : Korean
Default : No
Forced : No

Text #10
ID : 12
Format : UTF-8
Codec ID : S_TEXT/UTF8
Codec ID/Info : UTF-8 Plain Text
Duration : 1 h 1 min
Bit rate : 119 b/s
Count of elements : 1665
Stream size : 53.4 KiB (0%)
Title : Nederlands
Language : Dutch
Default : No
Forced : No

Text #11
ID : 13
Format : UTF-8
Codec ID : S_TEXT/UTF8
Codec ID/Info : UTF-8 Plain Text
Duration : 1 h 1 min
Bit rate : 121 b/s
Count of elements : 1665
Stream size : 54.5 KiB (0%)
Title : Português
Language : Portuguese
Default : No
Forced : No

Text #12
ID : 14
Format : UTF-8
Codec ID : S_TEXT/UTF8
Codec ID/Info : UTF-8 Plain Text
Duration : 1 h 1 min
Bit rate : 118 b/s
Count of elements : 1665
Stream size : 53.0 KiB (0%)
Title : 中文
Language : Chinese
Default : No
Forced : No

RuPauls.Drag.Race.S14E02.고화질.WEB.h264-SECRETOS


▣ 아이비코리아 채널을 구독해주세요!
◆ 페이스북 : https://www.facebook.com/IBE.KR
◆ 인스타그램 : https://www.instagram.com/ibe.kr/
◆ 트위터 : https://twitter.com/ibekr_ts


이 게시판에서 관련된 자료 목록
웹하드 가입에서 다운로드까지 어렵지 않아요~

시작페이지

파일비트


웹하드 가입에서 다운로드까지 어렵지 않아요~

오늘의 업데이트

외국티비 인기글

Facebook Twitter GooglePlus KakaoStory NaverBand