Young.Sheldon.S05E11.초고화질.AMZN.WEBRip.DD > 외국티비
웹하드 가입에서 다운로드까지 어렵지 않아요~
웹하드 가입에서 다운로드까지 어렵지 않아요~
 [구글검색] 구글에서 더토렌트 검색 - 구글에서 토렌트를 검색하실 때에 검색어 뒤에 더토렌트를 꼭 붙여서 검색하세요.     사용자님의 다운로드가 완료될 때까지 저희가 함께하겠습니다. 편안하고 즐거운 시간 되십시오.

시작페이지

파일몽


[초고화질] Young.Sheldon.S05E11.초고화질.AMZN.WEBRip.DDP5.1.x264-… 토렌트
  • 파일설명:     Screens... (click to enlarge): Young.Sheldon.S05E11.초고화질.AMZN.WEBRip.DDP5.1.x264-NTbInfolink -> https://www.imdb.com/title/tt6226232/Quote:MediainfoVideoID : 1Format : AVCFormat/Info : Advanced Video CodecFormat profile : [email protected]Format settings : CABAC / 4 Ref FramesFormat settings, CABAC : YesFormat settings, Reference frames : 4 framesCodec ID : V_MPEG4/ISO/AVCDuration : 20 min 28 sBit rate mode : ConstantBit rate : 5 934 kb/sNominal bit rate : 10 000 kb/sWidth : 1 920 pixelsHeight : 1 080 pixelsDisplay aspect ratio : 16:9Frame rate mode : ConstantFrame rate : 23.976 (24000/1001) FPSColor space : YUVChroma subsampling : 4:2:0Bit depth : 8 bitsScan type : ProgressiveBits/(Pixel*Frame) : 0.119Stream size : 869 MiB (90%)Default : YesForced : NoColor range : LimitedColor primaries : BT.709Transfer characteristics : BT.709Matrix coefficients : BT.709AudioID : 2Format : E-AC-3Format/Info : Enhanced AC-3Commercial name : Dolby Digital PlusCodec ID : A_EAC3Duration : 20 min 28 sBit rate mode : ConstantBit rate : 640 kb/sChannel(s) : 6 channelsChannel layout : L R C LFE Ls RsSampling rate : 48.0 kHzFrame rate : 31.250 FPS (1536 SPF)Compression mode : LossyStream size : 93.7 MiB (10%)Language : EnglishService kind : Complete MainDefault : YesForced : NoText #1ID : 3Format : UTF-8Codec ID : S_TEXT/UTF8Codec ID/Info : UTF-8 Plain TextDuration : 19 min 59 sBit rate : 83 b/sCount of elements : 454Stream size : 12.2 KiB (0%)Language : EnglishDefault : NoForced : NoText #2ID : 4Format : UTF-8Codec ID : S_TEXT/UTF8Codec ID/Info : UTF-8 Plain TextDuration : 19 min 59 sBit rate : 90 b/sCount of elements : 479Stream size : 13.3 KiB (0%)Title : SDHLanguage : EnglishDefault : NoForced : No Young.Sheldon.S05E11.초고화질.AMZN.WEBRip.DDP5.1.x264-NTb…
  • 인기 연관 검색어 구글 검색:    
  • 관련 자료(가나다순):    Accident Suicide or Murder S02E11 Young Deadly Love 480p x264-m…    Younger S07E12 고화질 WEB x265-MiNX TGx ⭐
  • 관련 자료(시간순):    Young Sheldon S03 COMPLETE 고화질 AMZN WEBRip x264-GalaxyTV ⭐ - 더토…    Young Sheldon S05E12 초고화질 HEVC x265-MeGusta TGx
  • 같은 시각 자료:    Blue.Bloods.S12E11.XviD-AFG[TGx]    Magnum.P.I.2018.S04E11.XviD-AFG[TGx]

  직접 다운로드      무료 다운로드

[초고화질] Young.Sheldon.S05E11.초고화질.AMZN.WEBRip.DDP5.1.x264-NTb > 외국티비

[초고화질] Young.Sheldon.S05E11.초고화질.AMZN.WEBRip.DDP5.1.x264-NTb
  • Young.Sheldon.S05E11.초고화질.AMZN.WEBRip.DDP5.1.x264-NTb  로고   토렌트 링크 제공 서치엔진
  • Young.Sheldon.S05E11.초고화질.AMZN.WEBRip.DDP5.1.x264-NTb 로고   직접 다운로드
  • Young.Sheldon.S05E11.초고화질.AMZN.WEBRip.DDP5.1.x264-NTb 로고   빠른 열차에 탑승해 KTX토렌트
  • Young.Sheldon.S05E11.초고화질.AMZN.WEBRip.DDP5.1.x264-NTb 로고   토렌트의 최강자 토렌트씨
  • Young.Sheldon.S05E11.초고화질.AMZN.WEBRip.DDP5.1.x264-NTb 로고   무제한 다운로드
  • Young.Sheldon.S05E11.초고화질.AMZN.WEBRip.DDP5.1.x264-NTb 로고   토렌트 마법사 토렌트위즈
  • Young.Sheldon.S05E11.초고화질.AMZN.WEBRip.DDP5.1.x264-NTb 로고   토렌트 트윈터보 토렌트티티
  • Screens... (click to enlarge): Young.Sheldon.S05E11.초고화질.AMZN.WEBRip.DDP5.1.x264-NTbInfolink -> https://www.imdb.com/title/tt6226232/Quote:MediainfoVideoID : 1Format : AVCFormat/Info : Advanced Video CodecFormat profile : [email protected]Format settings : CABAC / 4 Ref FramesFormat settings, CABAC : YesFormat settings, Reference frames : 4 framesCodec ID : V_MPEG4/ISO/AVCDuration : 20 min 28 sBit rate mode : ConstantBit rate : 5 934 kb/sNominal bit rate : 10 000 kb/sWidth : 1 920 pixelsHeight : 1 080 pixelsDisplay aspect ratio : 16:9Frame rate mode : ConstantFrame rate : 23.976 (24000/1001) FPSColor space : YUVChroma subsampling : 4:2:0Bit depth : 8 bitsScan type : ProgressiveBits/(Pixel*Frame) : 0.119Stream size : 869 MiB (90%)Default : YesForced : NoColor range : LimitedColor primaries : BT.709Transfer characteristics : BT.709Matrix coefficients : BT.709AudioID : 2Format : E-AC-3Format/Info : Enhanced AC-3Commercial name : Dolby Digital PlusCodec ID : A_EAC3Duration : 20 min 28 sBit rate mode : ConstantBit rate : 640 kb/sChannel(s) : 6 channelsChannel layout : L R C LFE Ls RsSampling rate : 48.0 kHzFrame rate : 31.250 FPS (1536 SPF)Compression mode : LossyStream size : 93.7 MiB (10%)Language : EnglishService kind : Complete MainDefault : YesForced : NoText #1ID : 3Format : UTF-8Codec ID : S_TEXT/UTF8Codec ID/Info : UTF-8 Plain TextDuration : 19 min 59 sBit rate : 83 b/sCount of elements : 454Stream size : 12.2 KiB (0%)Language : EnglishDefault : NoForced : NoText #2ID : 4Format : UTF-8Codec ID : S_TEXT/UTF8Codec ID/Info : UTF-8 Plain TextDuration : 19 min 59 sBit rate : 90 b/sCount of elements : 479Stream size : 13.3 KiB (0%)Title : SDHLanguage : EnglishDefault : NoForced : No Young.Sheldon.S05E11.초고화질.AMZN.WEBRip.DDP5.1.x264-NTb…

Screens... (click to enlarge):





Young.Sheldon.S05E11.초고화질.AMZN.WEBRip.DDP5.1.x264-NTb

Infolink -> https://www.imdb.com/title/tt6226232/

Quote:

Mediainfo
Video
ID : 1
Format : AVC
Format/Info : Advanced Video Codec
Format profile : [email protected]
Format settings : CABAC / 4 Ref Frames
Format settings, CABAC : Yes
Format settings, Reference frames : 4 frames
Codec ID : V_MPEG4/ISO/AVC
Duration : 20 min 28 s
Bit rate mode : Constant
Bit rate : 5 934 kb/s
Nominal bit rate : 10 000 kb/s
Width : 1 920 pixels
Height : 1 080 pixels
Display aspect ratio : 16:9
Frame rate mode : Constant
Frame rate : 23.976 (24000/1001) FPS
Color space : YUV
Chroma subsampling : 4:2:0
Bit depth : 8 bits
Scan type : Progressive
Bits/(Pixel*Frame) : 0.119
Stream size : 869 MiB (90%)
Default : Yes
Forced : No
Color range : Limited
Color primaries : BT.709
Transfer characteristics : BT.709
Matrix coefficients : BT.709

Audio
ID : 2
Format : E-AC-3
Format/Info : Enhanced AC-3
Commercial name : Dolby Digital Plus
Codec ID : A_EAC3
Duration : 20 min 28 s
Bit rate mode : Constant
Bit rate : 640 kb/s
Channel(s) : 6 channels
Channel layout : L R C LFE Ls Rs
Sampling rate : 48.0 kHz
Frame rate : 31.250 FPS (1536 SPF)
Compression mode : Lossy
Stream size : 93.7 MiB (10%)
Language : English
Service kind : Complete Main
Default : Yes
Forced : No

Text #1
ID : 3
Format : UTF-8
Codec ID : S_TEXT/UTF8
Codec ID/Info : UTF-8 Plain Text
Duration : 19 min 59 s
Bit rate : 83 b/s
Count of elements : 454
Stream size : 12.2 KiB (0%)
Language : English
Default : No
Forced : No

Text #2
ID : 4
Format : UTF-8
Codec ID : S_TEXT/UTF8
Codec ID/Info : UTF-8 Plain Text
Duration : 19 min 59 s
Bit rate : 90 b/s
Count of elements : 479
Stream size : 13.3 KiB (0%)
Title : SDH
Language : English
Default : No
Forced : No

Young.Sheldon.S05E11.초고화질.AMZN.WEBRip.DDP5.1.x264-NTb


▣ 아이비코리아 채널을 구독해주세요!
◆ 페이스북 : https://www.facebook.com/IBE.KR
◆ 인스타그램 : https://www.instagram.com/ibe.kr/
◆ 트위터 : https://twitter.com/ibekr_ts


이 게시판에서 관련된 자료 목록
웹하드 가입에서 다운로드까지 어렵지 않아요~

시작페이지

파일썬


웹하드 가입에서 다운로드까지 어렵지 않아요~

오늘의 업데이트

외국티비 인기글

Facebook Twitter GooglePlus KakaoStory NaverBand