Blue.Bloods.S12E11.초고화질.WEB.h264-GOSSIP > 외국티비
웹하드 가입에서 다운로드까지 어렵지 않아요~
웹하드 가입에서 다운로드까지 어렵지 않아요~
 [구글검색] 구글에서 더토렌트 검색 - 구글에서 토렌트를 검색하실 때에 검색어 뒤에 더토렌트를 꼭 붙여서 검색하세요.     사용자님의 다운로드가 완료될 때까지 저희가 함께하겠습니다. 편안하고 즐거운 시간 되십시오.

시작페이지

파일마루


[초고화질] Blue.Bloods.S12E11.초고화질.WEB.h264-GOSSIP 토렌트
  • 파일설명:     Screens... (click to enlarge): presents Blue.Bloods.S12E11.초고화질.WEB.h264-GOSSIP date......: 15/01/2022 size......: 2.36 GiB runtime...: 43 min 19 s resolution: 초고화질 bitrate...: 7 618 kb/s audio.....: (English) E-AC-3 6ch 192 kb/s subs......: English url.......: https://www.tvmaze.com/shows/100/blue-bloods They gossip this is a quality release!Infolink -> https://www.imdb.com/title/tt1595859/Quote:MediainfoVideoID : 1Format : AVCFormat/Info : Advanced Video CodecFormat profile : [email protected]Format settings : CABAC / 4 Ref FramesFormat settings, CABAC : YesFormat settings, Reference frames : 4 framesCodec ID : V_MPEG4/ISO/AVCDuration : 43 min 19 sBit rate mode : ConstantBit rate : 7 618 kb/sNominal bit rate : 10 000 kb/sWidth : 1 920 pixelsHeight : 1 080 pixelsDisplay aspect ratio : 16:9Frame rate mode : ConstantFrame rate : 23.976 (24000/1001) FPSColor space : YUVChroma subsampling : 4:2:0Bit depth : 8 bitsScan type : ProgressiveBits/(Pixel*Frame) : 0.153Stream size : 2.31 GiB (98%)Language : EnglishDefault : YesForced : NoColor range : LimitedColor primaries : BT.709Transfer characteristics : BT.709Matrix coefficients : BT.709AudioID : 2Format : E-AC-3Format/Info : Enhanced AC-3Commercial name : Dolby Digital PlusCodec ID : A_EAC3Duration : 43 min 19 sBit rate mode : ConstantBit rate : 192 kb/sChannel(s) : 6 channelsChannel layout : L R C LFE Ls RsSampling rate : 48.0 kHzFrame rate : 31.250 FPS (1536 SPF)Compression mode : LossyStream size : 59.5 MiB (2%)Language : EnglishService kind : Complete MainDefault : YesForced : NoTextID : 3Format : UTF-8Codec ID : S_TEXT/UTF8Codec ID/Info : UTF-8 Plain TextDuration : 42 min 31 sBit rate : 94 b/sCount of elements : 958Stream size : 29.3 KiB (0%)Title : EnglishLanguage : EnglishDefault : NoForced : No Blue.Bloods.S12E11.초고화질.WEB.h264-GOSSIP…
  • 인기 연관 검색어 구글 검색:    
  • 관련 자료(가나다순):    American Horror Story S10E09 Blue Moon 고화질 HDTV x264-CRiMSON    The Good Doctor S04E12 Teeny Blue Eyes 초고화질 AMZN WEBRip DDP5 1 …
  • 관련 자료(시간순):    Blue Lagoon: The Awakening (2012) 고화질 WEBRip YTS YIFY - 더토렌트    Blue Bloods S12E12 XviD-AFG TGx
  • 같은 시각 자료:    The.Killer.Speaks.S01.COMPLETE.고화질.AMZN.WEBRip.x264-GalaxyTV    RuPauls.Drag.Race.Untucked.S14E02.초고화질.WEB.h264-SECRETOS

  직접 다운로드      무료 다운로드

[초고화질] Blue.Bloods.S12E11.초고화질.WEB.h264-GOSSIP > 외국티비

[초고화질] Blue.Bloods.S12E11.초고화질.WEB.h264-GOSSIP
  • Blue.Bloods.S12E11.초고화질.WEB.h264-GOSSIP  로고   토렌트 링크 제공 서치엔진
  • Blue.Bloods.S12E11.초고화질.WEB.h264-GOSSIP 로고   무제한 다운로드
  • Blue.Bloods.S12E11.초고화질.WEB.h264-GOSSIP 로고   대량 업데이트 토렌트다이아
  • Blue.Bloods.S12E11.초고화질.WEB.h264-GOSSIP 로고   토렌트의 최강자 토렌트씨
  • Blue.Bloods.S12E11.초고화질.WEB.h264-GOSSIP 로고   초고속 다운로드
  • Blue.Bloods.S12E11.초고화질.WEB.h264-GOSSIP 로고   토렌트 노리터 토렌트노리
  • Blue.Bloods.S12E11.초고화질.WEB.h264-GOSSIP 로고   인기 콘텐츠 공유 토렌트모바일
  • Screens... (click to enlarge): presents Blue.Bloods.S12E11.초고화질.WEB.h264-GOSSIP date......: 15/01/2022 size......: 2.36 GiB runtime...: 43 min 19 s resolution: 초고화질 bitrate...: 7 618 kb/s audio.....: (English) E-AC-3 6ch 192 kb/s subs......: English url.......: https://www.tvmaze.com/shows/100/blue-bloods They gossip this is a quality release!Infolink -> https://www.imdb.com/title/tt1595859/Quote:MediainfoVideoID : 1Format : AVCFormat/Info : Advanced Video CodecFormat profile : [email protected]Format settings : CABAC / 4 Ref FramesFormat settings, CABAC : YesFormat settings, Reference frames : 4 framesCodec ID : V_MPEG4/ISO/AVCDuration : 43 min 19 sBit rate mode : ConstantBit rate : 7 618 kb/sNominal bit rate : 10 000 kb/sWidth : 1 920 pixelsHeight : 1 080 pixelsDisplay aspect ratio : 16:9Frame rate mode : ConstantFrame rate : 23.976 (24000/1001) FPSColor space : YUVChroma subsampling : 4:2:0Bit depth : 8 bitsScan type : ProgressiveBits/(Pixel*Frame) : 0.153Stream size : 2.31 GiB (98%)Language : EnglishDefault : YesForced : NoColor range : LimitedColor primaries : BT.709Transfer characteristics : BT.709Matrix coefficients : BT.709AudioID : 2Format : E-AC-3Format/Info : Enhanced AC-3Commercial name : Dolby Digital PlusCodec ID : A_EAC3Duration : 43 min 19 sBit rate mode : ConstantBit rate : 192 kb/sChannel(s) : 6 channelsChannel layout : L R C LFE Ls RsSampling rate : 48.0 kHzFrame rate : 31.250 FPS (1536 SPF)Compression mode : LossyStream size : 59.5 MiB (2%)Language : EnglishService kind : Complete MainDefault : YesForced : NoTextID : 3Format : UTF-8Codec ID : S_TEXT/UTF8Codec ID/Info : UTF-8 Plain TextDuration : 42 min 31 sBit rate : 94 b/sCount of elements : 958Stream size : 29.3 KiB (0%)Title : EnglishLanguage : EnglishDefault : NoForced : No Blue.Bloods.S12E11.초고화질.WEB.h264-GOSSIP…

Screens... (click to enlarge):





presents

Blue.Bloods.S12E11.초고화질.WEB.h264-GOSSIP

date......: 15/01/2022
size......: 2.36 GiB
runtime...: 43 min 19 s
resolution: 초고화질
bitrate...: 7 618 kb/s
audio.....: (English) E-AC-3 6ch 192 kb/s
subs......: English
url.......: https://www.tvmaze.com/shows/100/blue-bloods

They gossip this is a quality release!

Infolink -> https://www.imdb.com/title/tt1595859/

Quote:

Mediainfo
Video
ID : 1
Format : AVC
Format/Info : Advanced Video Codec
Format profile : [email protected]
Format settings : CABAC / 4 Ref Frames
Format settings, CABAC : Yes
Format settings, Reference frames : 4 frames
Codec ID : V_MPEG4/ISO/AVC
Duration : 43 min 19 s
Bit rate mode : Constant
Bit rate : 7 618 kb/s
Nominal bit rate : 10 000 kb/s
Width : 1 920 pixels
Height : 1 080 pixels
Display aspect ratio : 16:9
Frame rate mode : Constant
Frame rate : 23.976 (24000/1001) FPS
Color space : YUV
Chroma subsampling : 4:2:0
Bit depth : 8 bits
Scan type : Progressive
Bits/(Pixel*Frame) : 0.153
Stream size : 2.31 GiB (98%)
Language : English
Default : Yes
Forced : No
Color range : Limited
Color primaries : BT.709
Transfer characteristics : BT.709
Matrix coefficients : BT.709

Audio
ID : 2
Format : E-AC-3
Format/Info : Enhanced AC-3
Commercial name : Dolby Digital Plus
Codec ID : A_EAC3
Duration : 43 min 19 s
Bit rate mode : Constant
Bit rate : 192 kb/s
Channel(s) : 6 channels
Channel layout : L R C LFE Ls Rs
Sampling rate : 48.0 kHz
Frame rate : 31.250 FPS (1536 SPF)
Compression mode : Lossy
Stream size : 59.5 MiB (2%)
Language : English
Service kind : Complete Main
Default : Yes
Forced : No

Text
ID : 3
Format : UTF-8
Codec ID : S_TEXT/UTF8
Codec ID/Info : UTF-8 Plain Text
Duration : 42 min 31 s
Bit rate : 94 b/s
Count of elements : 958
Stream size : 29.3 KiB (0%)
Title : English
Language : English
Default : No
Forced : No

Blue.Bloods.S12E11.초고화질.WEB.h264-GOSSIP


▣ 아이비코리아 채널을 구독해주세요!
◆ 페이스북 : https://www.facebook.com/IBE.KR
◆ 인스타그램 : https://www.instagram.com/ibe.kr/
◆ 트위터 : https://twitter.com/ibekr_ts


이 게시판에서 관련된 자료 목록
웹하드 가입에서 다운로드까지 어렵지 않아요~

시작페이지

파일썬


웹하드 가입에서 다운로드까지 어렵지 않아요~

오늘의 업데이트

외국티비 인기글

Facebook Twitter GooglePlus KakaoStory NaverBand