Magnum.P.I.2018.S04E11.초고화질.WEB.H264-CAK > 외국티비
웹하드 가입에서 다운로드까지 어렵지 않아요~
웹하드 가입에서 다운로드까지 어렵지 않아요~
 [구글검색] 구글에서 더토렌트 검색 - 구글에서 토렌트를 검색하실 때에 검색어 뒤에 더토렌트를 꼭 붙여서 검색하세요.     사용자님의 다운로드가 완료될 때까지 저희가 함께하겠습니다. 편안하고 즐거운 시간 되십시오.

시작페이지

파일썬


[초고화질] Magnum.P.I.2018.S04E11.초고화질.WEB.H264-CAKES 토렌트
  • 파일설명:     Screens... (click to enlarge): Summary: A nun hires Magnum and Higgins to investigate a mysterious and large cash donation made to a parishioner undergoing medical treatment at the church. Also, Jins new dog walking business takes a dramatic turn, and Rick nervously prepares to reconnect with Suzy.Quote:MediainfoVideoID : 1Format : AVCFormat/Info : Advanced Video CodecFormat profile : [email protected]Format settings : CABAC / 4 Ref FramesFormat settings, CABAC : YesFormat settings, Reference frames : 4 framesCodec ID : V_MPEG4/ISO/AVCDuration : 43 min 22 sBit rate : 9 483 kb/sWidth : 1 920 pixelsHeight : 1 080 pixelsDisplay aspect ratio : 16:9Frame rate mode : ConstantFrame rate : 24.000 FPSColor space : YUVChroma subsampling : 4:2:0Bit depth : 8 bitsScan type : ProgressiveBits/(Pixel*Frame) : 0.191Stream size : 2.87 GiB (92%)Default : YesForced : NoColor range : LimitedColor primaries : BT.709Transfer characteristics : BT.709Matrix coefficients : BT.709AudioID : 2Format : E-AC-3Format/Info : Enhanced AC-3Commercial name : Dolby Digital PlusCodec ID : A_EAC3Duration : 43 min 22 sBit rate mode : ConstantBit rate : 640 kb/sChannel(s) : 6 channelsChannel layout : L R C LFE Ls RsSampling rate : 48.0 kHzFrame rate : 31.250 FPS (1536 SPF)Compression mode : LossyStream size : 199 MiB (6%)Language : EnglishService kind : Complete MainDefault : YesForced : NoTextID : 3Format : UTF-8Codec ID : S_TEXT/UTF8Codec ID/Info : UTF-8 Plain TextTitle : EnglishLanguage : EnglishDefault : NoForced : No Magnum.P.I.2018.S04E11.초고화질.WEB.H264-CAKES…
  • 인기 연관 검색어 구글 검색:    
  • 관련 자료(가나다순):    Magnum P I 2018 S04E03 고화질 HEVC x265-MeGusta    Magnum P I S03E16 480p x264-ZMNT
  • 관련 자료(시간순):    Magnum P I 2018 S03E01 고화질 HDTV x265-MiNX TGx ⭐    Magnum P I 2018 S04E12 초고화질 HEVC x265-MeGusta TGx
  • 같은 시각 자료:    RuPauls.Drag.Race.Untucked.S14E02.초고화질.WEB.h264-SECRETOS    WWE Friday Night SmackDown 2022 01 14 HDTV x264-Star [TJET]

  직접 다운로드      무료 다운로드

[초고화질] Magnum.P.I.2018.S04E11.초고화질.WEB.H264-CAKES > 외국티비

[초고화질] Magnum.P.I.2018.S04E11.초고화질.WEB.H264-CAKES
  • Magnum.P.I.2018.S04E11.초고화질.WEB.H264-CAKES  로고   토렌트 링크 제공 서치엔진
  • Magnum.P.I.2018.S04E11.초고화질.WEB.H264-CAKES 로고   무제한 다운로드
  • Magnum.P.I.2018.S04E11.초고화질.WEB.H264-CAKES 로고   대량 업데이트 토렌트다이아
  • Magnum.P.I.2018.S04E11.초고화질.WEB.H264-CAKES 로고   토렌트 커뮤니티 주주토렌트
  • Magnum.P.I.2018.S04E11.초고화질.WEB.H264-CAKES 로고   직접 다운로드
  • Magnum.P.I.2018.S04E11.초고화질.WEB.H264-CAKES 로고   충성을 다할 것을 토렌트썰
  • Magnum.P.I.2018.S04E11.초고화질.WEB.H264-CAKES 로고   토렌트 노리터 토렌트노리
  • Screens... (click to enlarge): Summary: A nun hires Magnum and Higgins to investigate a mysterious and large cash donation made to a parishioner undergoing medical treatment at the church. Also, Jins new dog walking business takes a dramatic turn, and Rick nervously prepares to reconnect with Suzy.Quote:MediainfoVideoID : 1Format : AVCFormat/Info : Advanced Video CodecFormat profile : [email protected]Format settings : CABAC / 4 Ref FramesFormat settings, CABAC : YesFormat settings, Reference frames : 4 framesCodec ID : V_MPEG4/ISO/AVCDuration : 43 min 22 sBit rate : 9 483 kb/sWidth : 1 920 pixelsHeight : 1 080 pixelsDisplay aspect ratio : 16:9Frame rate mode : ConstantFrame rate : 24.000 FPSColor space : YUVChroma subsampling : 4:2:0Bit depth : 8 bitsScan type : ProgressiveBits/(Pixel*Frame) : 0.191Stream size : 2.87 GiB (92%)Default : YesForced : NoColor range : LimitedColor primaries : BT.709Transfer characteristics : BT.709Matrix coefficients : BT.709AudioID : 2Format : E-AC-3Format/Info : Enhanced AC-3Commercial name : Dolby Digital PlusCodec ID : A_EAC3Duration : 43 min 22 sBit rate mode : ConstantBit rate : 640 kb/sChannel(s) : 6 channelsChannel layout : L R C LFE Ls RsSampling rate : 48.0 kHzFrame rate : 31.250 FPS (1536 SPF)Compression mode : LossyStream size : 199 MiB (6%)Language : EnglishService kind : Complete MainDefault : YesForced : NoTextID : 3Format : UTF-8Codec ID : S_TEXT/UTF8Codec ID/Info : UTF-8 Plain TextTitle : EnglishLanguage : EnglishDefault : NoForced : No Magnum.P.I.2018.S04E11.초고화질.WEB.H264-CAKES…

Screens... (click to enlarge):










Summary:
A nun hires Magnum and Higgins to investigate a mysterious and
large cash donation made to a parishioner undergoing medical
treatment at the church. Also, Jins new dog walking business
takes a dramatic turn, and Rick nervously prepares to
reconnect with Suzy.

Quote:

Mediainfo
Video
ID : 1
Format : AVC
Format/Info : Advanced Video Codec
Format profile : [email protected]
Format settings : CABAC / 4 Ref Frames
Format settings, CABAC : Yes
Format settings, Reference frames : 4 frames
Codec ID : V_MPEG4/ISO/AVC
Duration : 43 min 22 s
Bit rate : 9 483 kb/s
Width : 1 920 pixels
Height : 1 080 pixels
Display aspect ratio : 16:9
Frame rate mode : Constant
Frame rate : 24.000 FPS
Color space : YUV
Chroma subsampling : 4:2:0
Bit depth : 8 bits
Scan type : Progressive
Bits/(Pixel*Frame) : 0.191
Stream size : 2.87 GiB (92%)
Default : Yes
Forced : No
Color range : Limited
Color primaries : BT.709
Transfer characteristics : BT.709
Matrix coefficients : BT.709

Audio
ID : 2
Format : E-AC-3
Format/Info : Enhanced AC-3
Commercial name : Dolby Digital Plus
Codec ID : A_EAC3
Duration : 43 min 22 s
Bit rate mode : Constant
Bit rate : 640 kb/s
Channel(s) : 6 channels
Channel layout : L R C LFE Ls Rs
Sampling rate : 48.0 kHz
Frame rate : 31.250 FPS (1536 SPF)
Compression mode : Lossy
Stream size : 199 MiB (6%)
Language : English
Service kind : Complete Main
Default : Yes
Forced : No

Text
ID : 3
Format : UTF-8
Codec ID : S_TEXT/UTF8
Codec ID/Info : UTF-8 Plain Text
Title : English
Language : English
Default : No
Forced : No

Magnum.P.I.2018.S04E11.초고화질.WEB.H264-CAKES


▣ 아이비코리아 채널을 구독해주세요!
◆ 페이스북 : https://www.facebook.com/IBE.KR
◆ 인스타그램 : https://www.instagram.com/ibe.kr/
◆ 트위터 : https://twitter.com/ibekr_ts


이 게시판에서 관련된 자료 목록
웹하드 가입에서 다운로드까지 어렵지 않아요~

시작페이지

파일썬


웹하드 가입에서 다운로드까지 어렵지 않아요~

오늘의 업데이트

외국티비 인기글

Facebook Twitter GooglePlus KakaoStory NaverBand