Its.Always.Sunny.in.Philadelphia.S15E02. > 외국티비
웹하드 가입에서 다운로드까지 어렵지 않아요~
웹하드 가입에서 다운로드까지 어렵지 않아요~
 [구글검색] 구글에서 더토렌트 검색 - 구글에서 토렌트를 검색하실 때에 검색어 뒤에 더토렌트를 꼭 붙여서 검색하세요.     사용자님의 다운로드가 완료될 때까지 저희가 함께하겠습니다. 편안하고 즐거운 시간 되십시오.

시작페이지

파일마루


[고화질] Its.Always.Sunny.in.Philadelphia.S15E02.PROPER.고화질… 토렌트
  • 파일설명:     Screens... (click to enlarge): Its.Always.Sunny.in.Philadelphia.S15E02.PROPER.고화질.WEB.H264-GGEZ Notes: Proper due to warning card.Infolink -> https://www.imdb.com/title/tt0472954/Quote:MediainfoVideoID : 1Format : AVCFormat/Info : Advanced Video CodecFormat profile : [email protected]Format settings : CABAC / 5 Ref FramesFormat settings, CABAC : YesFormat settings, Reference frames : 5 framesCodec ID : V_MPEG4/ISO/AVCDuration : 21 min 45 sBit rate : 2 669 kb/sWidth : 1 280 pixelsHeight : 720 pixelsDisplay aspect ratio : 16:9Frame rate mode : ConstantFrame rate : 23.976 (24000/1001) FPSColor space : YUVChroma subsampling : 4:2:0Bit depth : 8 bitsScan type : ProgressiveBits/(Pixel*Frame) : 0.121Stream size : 415 MiB (89%)Default : YesForced : NoAudioID : 2Format : E-AC-3Format/Info : Enhanced AC-3Commercial name : Dolby Digital PlusCodec ID : A_EAC3Duration : 21 min 45 sBit rate mode : ConstantBit rate : 256 kb/sChannel(s) : 6 channelsChannel layout : L R C LFE Ls RsSampling rate : 48.0 kHzFrame rate : 31.250 FPS (1536 SPF)Compression mode : LossyDelay relative to video : 6 msStream size : 39.8 MiB (9%)Language : EnglishService kind : Complete MainDefault : YesForced : NoTextID : 3Format : UTF-8Codec ID : S_TEXT/UTF8Codec ID/Info : UTF-8 Plain TextTitle : EnglishLanguage : EnglishDefault : NoForced : No Its.Always.Sunny.in.Philadelphia.S15E02.PROPER.고화질.WEB.H264-GGEZ…
  • 인기 연관 검색어 구글 검색:    Suits 더토렌트    
  • 관련 자료(가나다순):    Bandish Bandits (2020) Hindi S01 Complete 고화질 AMZN WEBRip - 3 1    Wheeler Dealers S17E09 Mitsubishi Evo 7 WEBRip x264-skorpion
  • 관련 자료(시간순):    Blindspot S05E10 Love You to Bits and Bytes 고화질 WEBRip 2CH x265    Its Always Sunny in Philadelphia S15 COMPLETE 고화질 AMZN WEBRip x…
  • 같은 시각 자료:    A.Million.Little.Things.S04E08.HDTV.x264-PHOENiX    The.Sex.Lives.of.College.Girls.S01E06.WEB.x264-PHOENiX

  직접 다운로드      무료 다운로드

[고화질] Its.Always.Sunny.in.Philadelphia.S15E02.PROPER.고화질.WEB.H264-GGEZ > 외국티비

[고화질] Its.Always.Sunny.in.Philadelphia.S15E02.PROPER.고화질.WEB.H264-GGEZ

Screens... (click to enlarge):





Its.Always.Sunny.in.Philadelphia.S15E02.PROPER.고화질.WEB.H264-GGEZ

Notes: Proper due to warning card.

Infolink -> https://www.imdb.com/title/tt0472954/

Quote:

Mediainfo
Video
ID : 1
Format : AVC
Format/Info : Advanced Video Codec
Format profile : [email protected]
Format settings : CABAC / 5 Ref Frames
Format settings, CABAC : Yes
Format settings, Reference frames : 5 frames
Codec ID : V_MPEG4/ISO/AVC
Duration : 21 min 45 s
Bit rate : 2 669 kb/s
Width : 1 280 pixels
Height : 720 pixels
Display aspect ratio : 16:9
Frame rate mode : Constant
Frame rate : 23.976 (24000/1001) FPS
Color space : YUV
Chroma subsampling : 4:2:0
Bit depth : 8 bits
Scan type : Progressive
Bits/(Pixel*Frame) : 0.121
Stream size : 415 MiB (89%)
Default : Yes
Forced : No

Audio
ID : 2
Format : E-AC-3
Format/Info : Enhanced AC-3
Commercial name : Dolby Digital Plus
Codec ID : A_EAC3
Duration : 21 min 45 s
Bit rate mode : Constant
Bit rate : 256 kb/s
Channel(s) : 6 channels
Channel layout : L R C LFE Ls Rs
Sampling rate : 48.0 kHz
Frame rate : 31.250 FPS (1536 SPF)
Compression mode : Lossy
Delay relative to video : 6 ms
Stream size : 39.8 MiB (9%)
Language : English
Service kind : Complete Main
Default : Yes
Forced : No

Text
ID : 3
Format : UTF-8
Codec ID : S_TEXT/UTF8
Codec ID/Info : UTF-8 Plain Text
Title : English
Language : English
Default : No
Forced : No

Its.Always.Sunny.in.Philadelphia.S15E02.PROPER.고화질.WEB.H264-GGEZ


▣ 아이비코리아 채널을 구독해주세요!
◆ 페이스북 : https://www.facebook.com/IBE.KR
◆ 인스타그램 : https://www.instagram.com/ibe.kr/
◆ 트위터 : https://twitter.com/ibekr_ts


이 게시판에서 관련된 자료 목록
웹하드 가입에서 다운로드까지 어렵지 않아요~

시작페이지

파일몽


웹하드 가입에서 다운로드까지 어렵지 않아요~

오늘의 업데이트

외국티비 인기글

Facebook Twitter GooglePlus KakaoStory NaverBand