The.Sinner.S04E08.초고화질.WEB.H264-PECULATE > 외국티비
웹하드 가입에서 다운로드까지 어렵지 않아요~
웹하드 가입에서 다운로드까지 어렵지 않아요~
 [구글검색] 구글에서 더토렌트 검색 - 구글에서 토렌트를 검색하실 때에 검색어 뒤에 더토렌트를 꼭 붙여서 검색하세요.     사용자님의 다운로드가 완료될 때까지 저희가 함께하겠습니다. 편안하고 즐거운 시간 되십시오.

시작페이지

파일비트


[초고화질] The.Sinner.S04E08.초고화질.WEB.H264-PECULATE 토렌트

  직접 다운로드      무료 다운로드

[초고화질] The.Sinner.S04E08.초고화질.WEB.H264-PECULATE > 외국티비

[초고화질] The.Sinner.S04E08.초고화질.WEB.H264-PECULATE
  • The.Sinner.S04E08.초고화질.WEB.H264-PECULATE  로고   토렌트 링크 제공 서치엔진
  • The.Sinner.S04E08.초고화질.WEB.H264-PECULATE 로고   무료 다운로드
  • The.Sinner.S04E08.초고화질.WEB.H264-PECULATE 로고   토렌트와 연애해요 토렌트썸
  • The.Sinner.S04E08.초고화질.WEB.H264-PECULATE 로고   토렌트가 필요할 땐 토렌트제이
  • The.Sinner.S04E08.초고화질.WEB.H264-PECULATE 로고   무료 다운로드
  • The.Sinner.S04E08.초고화질.WEB.H264-PECULATE 로고   토렌트만 볼꺼야 토렌트뷰
  • The.Sinner.S04E08.초고화질.WEB.H264-PECULATE 로고   토렌트밖에 없어요! 토렌트온리
  • Screens... (click to enlarge): The.Sinner.S04E08.초고화질.WEB.H264-PECULATE Release Size  : 3.22 GiB Duration      : 56 min 36 s Resolution    : 초고화질 Video Bitrate : 7 502 kb/s Audio         : (English) E-AC-3 6ch 640 kb/sInfolink -> https://www.imdb.com/title/tt6048596/Quote:MediainfoVideoID : 1Format : AVCFormat/Info : Advanced Video CodecFormat profile : [email protected]Format settings : CABAC / 4 Ref FramesFormat settings, CABAC : YesFormat settings, Reference frames : 4 framesCodec ID : V_MPEG4/ISO/AVCDuration : 56 min 36 sBit rate mode : ConstantBit rate : 7 502 kb/sNominal bit rate : 10 000 kb/sWidth : 1 920 pixelsHeight : 1 080 pixelsDisplay aspect ratio : 16:9Frame rate mode : ConstantFrame rate : 23.976 (24000/1001) FPSColor space : YUVChroma subsampling : 4:2:0Bit depth : 8 bitsScan type : ProgressiveBits/(Pixel*Frame) : 0.151Stream size : 2.97 GiB (92%)Language : EnglishDefault : YesForced : NoColor range : LimitedColor primaries : BT.709Transfer characteristics : BT.709Matrix coefficients : BT.709AudioID : 2Format : E-AC-3Format/Info : Enhanced AC-3Commercial name : Dolby Digital PlusCodec ID : A_EAC3Duration : 56 min 36 sBit rate mode : ConstantBit rate : 640 kb/sChannel(s) : 6 channelsChannel layout : L R C LFE Ls RsSampling rate : 48.0 kHzFrame rate : 31.250 FPS (1536 SPF)Compression mode : LossyStream size : 259 MiB (8%)Language : EnglishService kind : Complete MainDefault : YesForced : NoTextID : 3Format : UTF-8Codec ID : S_TEXT/UTF8Codec ID/Info : UTF-8 Plain TextDuration : 55 min 56 sBit rate : 47 b/sCount of elements : 776Stream size : 19.6 KiB (0%)Title : EnglishLanguage : EnglishDefault : NoForced : No The.Sinner.S04E08.초고화질.WEB.H264-PECULATE…

Screens... (click to enlarge):





The.Sinner.S04E08.초고화질.WEB.H264-PECULATE

Release Size  : 3.22 GiB
Duration      : 56 min 36 s
Resolution    : 초고화질
Video Bitrate : 7 502 kb/s
Audio         : (English) E-AC-3 6ch 640 kb/s

Infolink -> https://www.imdb.com/title/tt6048596/

Quote:

Mediainfo
Video
ID : 1
Format : AVC
Format/Info : Advanced Video Codec
Format profile : [email protected]
Format settings : CABAC / 4 Ref Frames
Format settings, CABAC : Yes
Format settings, Reference frames : 4 frames
Codec ID : V_MPEG4/ISO/AVC
Duration : 56 min 36 s
Bit rate mode : Constant
Bit rate : 7 502 kb/s
Nominal bit rate : 10 000 kb/s
Width : 1 920 pixels
Height : 1 080 pixels
Display aspect ratio : 16:9
Frame rate mode : Constant
Frame rate : 23.976 (24000/1001) FPS
Color space : YUV
Chroma subsampling : 4:2:0
Bit depth : 8 bits
Scan type : Progressive
Bits/(Pixel*Frame) : 0.151
Stream size : 2.97 GiB (92%)
Language : English
Default : Yes
Forced : No
Color range : Limited
Color primaries : BT.709
Transfer characteristics : BT.709
Matrix coefficients : BT.709

Audio
ID : 2
Format : E-AC-3
Format/Info : Enhanced AC-3
Commercial name : Dolby Digital Plus
Codec ID : A_EAC3
Duration : 56 min 36 s
Bit rate mode : Constant
Bit rate : 640 kb/s
Channel(s) : 6 channels
Channel layout : L R C LFE Ls Rs
Sampling rate : 48.0 kHz
Frame rate : 31.250 FPS (1536 SPF)
Compression mode : Lossy
Stream size : 259 MiB (8%)
Language : English
Service kind : Complete Main
Default : Yes
Forced : No

Text
ID : 3
Format : UTF-8
Codec ID : S_TEXT/UTF8
Codec ID/Info : UTF-8 Plain Text
Duration : 55 min 56 s
Bit rate : 47 b/s
Count of elements : 776
Stream size : 19.6 KiB (0%)
Title : English
Language : English
Default : No
Forced : No

The.Sinner.S04E08.초고화질.WEB.H264-PECULATE


▣ 아이비코리아 채널을 구독해주세요!
◆ 페이스북 : https://www.facebook.com/IBE.KR
◆ 인스타그램 : https://www.instagram.com/ibe.kr/
◆ 트위터 : https://twitter.com/ibekr_ts


이 게시판에서 관련된 자료 목록
웹하드 가입에서 다운로드까지 어렵지 않아요~

시작페이지

파일몽


웹하드 가입에서 다운로드까지 어렵지 않아요~

오늘의 업데이트

외국티비 인기글

Facebook Twitter GooglePlus KakaoStory NaverBand