Star.Trek.Discovery.S04E03.Choose.to.Liv > 외국티비
웹하드 가입에서 다운로드까지 어렵지 않아요~
웹하드 가입에서 다운로드까지 어렵지 않아요~
 [구글검색] 구글에서 더토렌트 검색 - 구글에서 토렌트를 검색하실 때에 검색어 뒤에 더토렌트를 꼭 붙여서 검색하세요.     사용자님의 다운로드가 완료될 때까지 저희가 함께하겠습니다. 편안하고 즐거운 시간 되십시오.

시작페이지

파일비트


[초고화질] Star.Trek.Discovery.S04E03.Choose.to.Live.초고화질.AMZ… 토렌트
  • 파일설명:     Screens... (click to enlarge): Star.Trek.Discovery.S04E03.Choose.to.Live.초고화질.AMZN.WEBRip.DDP5.1.x264-NTbInfolink -> https://www.imdb.com/title/tt5171438/Quote:MediainfoVideoID : 1Format : AVCFormat/Info : Advanced Video CodecFormat profile : [email protected]Format settings : CABAC / 4 Ref FramesFormat settings, CABAC : YesFormat settings, Reference frames : 4 framesCodec ID : V_MPEG4/ISO/AVCDuration : 55 min 18 sBit rate mode : ConstantBit rate : 7 065 kb/sNominal bit rate : 10 000 kb/sWidth : 1 920 pixelsHeight : 800 pixelsDisplay aspect ratio : 2.40:1Frame rate mode : ConstantFrame rate : 24.000 FPSColor space : YUVChroma subsampling : 4:2:0Bit depth : 8 bitsScan type : ProgressiveBits/(Pixel*Frame) : 0.192Stream size : 2.73 GiB (92%)Default : YesForced : NoColor range : LimitedColor primaries : BT.709Transfer characteristics : BT.709Matrix coefficients : BT.709AudioID : 2Format : E-AC-3Format/Info : Enhanced AC-3Commercial name : Dolby Digital PlusCodec ID : A_EAC3Duration : 55 min 18 sBit rate mode : ConstantBit rate : 640 kb/sChannel(s) : 6 channelsChannel layout : L R C LFE Ls RsSampling rate : 48.0 kHzFrame rate : 31.250 FPS (1536 SPF)Compression mode : LossyStream size : 253 MiB (8%)Language : EnglishService kind : Complete MainDefault : YesForced : NoText #1ID : 3Format : UTF-8Codec ID : S_TEXT/UTF8Codec ID/Info : UTF-8 Plain TextDuration : 53 min 59 sBit rate : 70 b/sCount of elements : 917Stream size : 27.7 KiB (0%)Language : EnglishDefault : NoForced : NoText #2ID : 4Format : UTF-8Codec ID : S_TEXT/UTF8Codec ID/Info : UTF-8 Plain TextDuration : 53 min 59 sBit rate : 74 b/sCount of elements : 965Stream size : 29.3 KiB (0%)Title : SDHLanguage : EnglishDefault : NoForced : No Star.Trek.Discovery.S04E03.Choose.to.Live.초고화질.AMZN.WEBRip.DDP5....…
  • 인기 연관 검색어 구글 검색:    Star 더토렌트    StarMade 더토렌트    
  • 관련 자료(가나다순):    9-1-1 Lone Star S01 COMPLETE 고화질 AMZN WEBRip x264-GalaxyTV ⭐ - …    Young Rock S01E09 A Lady Named Star Search 초고화질 AMZN WEBRip DDP…
  • 관련 자료(시간순):    WWE NXT 2020 05 27 HDTV x264-Star TJET - 더토렌트    Star Trek Prodigy S01E09 초고화질 HEVC x265-MeGusta TGx
  • 같은 시각 자료:    JoJo no Kimyou na Bouken Part 6: Stone Ocean - (01-12) [초고화질][Du...    NCIS.Hawaii.S01E08.WEBRip.x264-ION10

  직접 다운로드      무료 다운로드

[초고화질] Star.Trek.Discovery.S04E03.Choose.to.Live.초고화질.AMZN.WEBRip.DDP5.... > 외국티비

[초고화질] Star.Trek.Discovery.S04E03.Choose.to.Live.초고화질.AMZN.WEBRip.DDP5....

Screens... (click to enlarge):





Star.Trek.Discovery.S04E03.Choose.to.Live.초고화질.AMZN.WEBRip.DDP5.1.x264-NTb

Infolink -> https://www.imdb.com/title/tt5171438/

Quote:

Mediainfo
Video
ID : 1
Format : AVC
Format/Info : Advanced Video Codec
Format profile : [email protected]
Format settings : CABAC / 4 Ref Frames
Format settings, CABAC : Yes
Format settings, Reference frames : 4 frames
Codec ID : V_MPEG4/ISO/AVC
Duration : 55 min 18 s
Bit rate mode : Constant
Bit rate : 7 065 kb/s
Nominal bit rate : 10 000 kb/s
Width : 1 920 pixels
Height : 800 pixels
Display aspect ratio : 2.40:1
Frame rate mode : Constant
Frame rate : 24.000 FPS
Color space : YUV
Chroma subsampling : 4:2:0
Bit depth : 8 bits
Scan type : Progressive
Bits/(Pixel*Frame) : 0.192
Stream size : 2.73 GiB (92%)
Default : Yes
Forced : No
Color range : Limited
Color primaries : BT.709
Transfer characteristics : BT.709
Matrix coefficients : BT.709

Audio
ID : 2
Format : E-AC-3
Format/Info : Enhanced AC-3
Commercial name : Dolby Digital Plus
Codec ID : A_EAC3
Duration : 55 min 18 s
Bit rate mode : Constant
Bit rate : 640 kb/s
Channel(s) : 6 channels
Channel layout : L R C LFE Ls Rs
Sampling rate : 48.0 kHz
Frame rate : 31.250 FPS (1536 SPF)
Compression mode : Lossy
Stream size : 253 MiB (8%)
Language : English
Service kind : Complete Main
Default : Yes
Forced : No

Text #1
ID : 3
Format : UTF-8
Codec ID : S_TEXT/UTF8
Codec ID/Info : UTF-8 Plain Text
Duration : 53 min 59 s
Bit rate : 70 b/s
Count of elements : 917
Stream size : 27.7 KiB (0%)
Language : English
Default : No
Forced : No

Text #2
ID : 4
Format : UTF-8
Codec ID : S_TEXT/UTF8
Codec ID/Info : UTF-8 Plain Text
Duration : 53 min 59 s
Bit rate : 74 b/s
Count of elements : 965
Stream size : 29.3 KiB (0%)
Title : SDH
Language : English
Default : No
Forced : No

Star.Trek.Discovery.S04E03.Choose.to.Live.초고화질.AMZN.WEBRip.DDP5....


▣ 아이비코리아 채널을 구독해주세요!
◆ 페이스북 : https://www.facebook.com/IBE.KR
◆ 인스타그램 : https://www.instagram.com/ibe.kr/
◆ 트위터 : https://twitter.com/ibekr_ts


이 게시판에서 관련된 자료 목록
웹하드 가입에서 다운로드까지 어렵지 않아요~

시작페이지

파일몽


웹하드 가입에서 다운로드까지 어렵지 않아요~

오늘의 업데이트

외국티비 인기글

Facebook Twitter GooglePlus KakaoStory NaverBand