Lost.in.Space.2018.S03.고화질.NF.WEBRip.DDP > 외국티비
웹하드 가입에서 다운로드까지 어렵지 않아요~
웹하드 가입에서 다운로드까지 어렵지 않아요~
 [구글검색] 구글에서 더토렌트 검색 - 구글에서 토렌트를 검색하실 때에 검색어 뒤에 더토렌트를 꼭 붙여서 검색하세요.     사용자님의 다운로드가 완료될 때까지 저희가 함께하겠습니다. 편안하고 즐거운 시간 되십시오.

시작페이지

파일마루


[고화질] Lost.in.Space.2018.S03.고화질.NF.WEBRip.DDP5.1.Atmos.… 토렌트
  • 파일설명:     Screens... (click to enlarge): Infolink -> https://www.imdb.com/title/tt5232792/Quote:MediainfoVideoID : 1Format : AVCFormat/Info : Advanced Video CodecFormat profile : [email protected]Format settings : CABAC / 3 Ref FramesFormat settings, CABAC : YesFormat settings, Reference frames : 3 framesCodec ID : V_MPEG4/ISO/AVCDuration : 58 min 20 sBit rate mode : VariableBit rate : 2 853 kb/sNominal bit rate : 3 000 kb/sMaximum bit rate : 4 500 kb/sWidth : 1 280 pixelsHeight : 720 pixelsDisplay aspect ratio : 16:9Frame rate mode : ConstantFrame rate : 23.976 (24000/1001) FPSColor space : YUVChroma subsampling : 4:2:0Bit depth : 8 bitsScan type : ProgressiveBits/(Pixel*Frame) : 0.129Stream size : 1.16 GiB (79%)Writing library : x264 core 148 r2727 7d026e8Encoding settings : cabac=1 / ref=3 / deblock=1:0:0 / analyse=0x1:0x111 / me=umh / subme=10 / psy=1 / psy_rd=1.00:0.00 / mixed_ref=1 / me_range=24 / chroma_me=1 / trellis=2 / 8x8dct=0 / cqm=0 / deadzone=21,11 / fast_pskip=1 / chroma_qp_offset=-2 / threads=8 / lookahead_threads=1 / sliced_threads=0 / nr=0 / decimate=1 / interlaced=0 / bluray_compat=0 / stitchable=1 / constrained_intra=0 / bframes=2 / b_pyramid=0 / b_adapt=2 / b_bias=0 / direct=3 / weightb=1 / open_gop=0 / weightp=2 / keyint=250 / keyint_min=23 / scenecut=0 / intra_refresh=0 / rc_lookahead=48 / rc=2pass / mbtree=1 / bitrate=3000 / ratetol=1.0 / qcomp=0.50 / qpmin=6 / qpmax=51 / qpstep=4 / cplxblur=20.0 / qblur=0.5 / vbv_maxrate=4500 / vbv_bufsize=6000 / nal_hrd=vbr / filler=0 / ip_ratio=1.40 / aq=1:1.00Default : YesForced : NoAudioID : 2Format : E-AC-3 JOCFormat/Info : Enhanced AC-3 with Joint Object CodingCommercial name : Dolby Digital Plus with Dolby AtmosCodec ID : A_EAC3Duration : 58 min 20 sBit rate mode : ConstantBit rate : 768 kb/sChannel(s) : 6 channelsChannel layout : L R C LFE Ls RsSampling rate : 48.0 kHzFrame rate : 31.250 FPS (1536 SPF)Compression mode : LossyStream size : 320 MiB (21%)Language : EnglishService kind : Complete MainDefault : YesForced : NoComplexity index : 16Number of dynamic objects : 15Bed channel count : 1 channelBed channel configuration : LFEText #1ID : 3Format : UTF-8Codec ID : S_TEXT/UTF8Codec ID/Info : UTF-8 Plain TextDuration : 54 min 4 sBit rate : 49 b/sCount of elements : 597Stream size : 19.6 KiB (0%)Language : EnglishDefault : NoForced : NoText #2ID : 4Format : UTF-8Codec ID : S_TEXT/UTF8Codec ID/Info : UTF-8 Plain TextDuration : 54 min 30 sBit rate : 59 b/sCount of elements : 792Stream size : 23.7 KiB (0%)Title : SDHLanguage : EnglishDefault : NoForced : NoText #3ID : 5Format : UTF-8Codec ID : S_TEXT/UTF8Codec ID/Info : UTF-8 Plain TextDuration : 56 min 29 sBit rate : 76 b/sCount of elements : 593Stream size : 31.5 KiB (0%)Language : ArabicDefault : NoForced : NoText #4ID : 6Format : UTF-8Codec ID : S_TEXT/UTF8Codec ID/Info : UTF-8 Plain TextDuration : 56 min 30 sBit rate : 43 b/sCount of elements : 587Stream size : 17.9 KiB (0%)Language : CzechDefault : NoForced : NoText #5ID : 7Format : UTF-8Codec ID : S_TEXT/UTF8Codec ID/Info : UTF-8 Plain TextDuration : 56 min 29 sBit rate : 40 b/sCount of elements : 570Stream size : 16.7 KiB (0%)Language : DanishDefault : NoForced : NoText #6ID : 8Format : UTF-8Codec ID : S_TEXT/UTF8Codec ID/Info : UTF-8 Plain TextDuration : 56 min 29 sBit rate : 44 b/sCount of elements : 571Stream size : 18.3 KiB (0%)Language : GermanDefault : NoForced : NoText #7ID : 9Format : UTF-8Codec ID : S_TEXT/UTF8Codec ID/Info : UTF-8 Plain TextDuration : 56 min 29 sBit rate : 76 b/sCount of elements : 591Stream size : 31.8 KiB (0%)Language : GreekDefault : NoForced : NoText #8ID : 10Format : UTF-8Codec ID : S_TEXT/UTF8Codec ID/Info : UTF-8 Plain TextDuration : 56 min 28 sBit rate : 42 b/sCount of elements : 570Stream size : 17.6 KiB (0%)Language : SpanishDefault : NoForced : NoText #9ID : 11Format : UTF-8Codec ID : S_TEXT/UTF8Codec ID/Info : UTF-8 Plain TextDuration : 56 min 29 sBit rate : 42 b/sCount of elements : 591Stream size : 17.8 KiB (0%)Title : EuropeanLanguage : SpanishDefault : NoForced : NoText #10ID : 12Format : UTF-8Codec ID : S_TEXT/UTF8Codec ID/Info : UTF-8 Plain TextDuration : 56 min 29 sBit rate : 42 b/sCount of elements : 568Stream size : 17.6 KiB (0%)Language : FinnishDefault : NoForced : NoText #11ID : 13Format : UTF-8Codec ID : S_TEXT/UTF8Codec ID/Info : UTF-8 Plain TextDuration : 56 min 29 sBit rate : 43 b/sCount of elements : 552Stream size : 17.9 KiB (0%)Language : FrenchDefault : NoForced : NoText #12ID : 14Format : UTF-8Codec ID : S_TEXT/UTF8Codec ID/Info : UTF-8 Plain TextDuration : 56 min 38 sBit rate : 69 b/sCount of elements : 621Stream size : 28.7 KiB (0%)Language : HebrewDefault : NoForced : NoText #13ID : 15Format : UTF-8Codec ID : S_TEXT/UTF8Codec ID/Info : UTF-8 Plain TextDuration : 56 min 34 sBit rate : 39 b/sCount of elements : 597Stream size : 16.4 KiB (0%)Language : CroatianDefault : NoForced : NoText #14ID : 16Format : UTF-8Codec ID : S_TEXT/UTF8Codec ID/Info : UTF-8 Plain TextDuration : 56 min 30 sBit rate : 46 b/sCount of elements : 567Stream size : 19.4 KiB (0%)Language : HungarianDefault : NoForced : NoText #15ID : 17Format : UTF-8Codec ID : S_TEXT/UTF8Codec ID/Info : UTF-8 Plain TextDuration : 56 min 29 sBit rate : 44 b/sCount of elements : 591Stream size : 18.6 KiB (0%)Language : IndonesianDefault : NoForced : NoText #16ID : 18Format : UTF-8Codec ID : S_TEXT/UTF8Codec ID/Info : UTF-8 Plain TextDuration : 56 min 29 sBit rate : 49 b/sCount of elements : 591Stream size : 20.4 KiB (0%)Language : ItalianDefault : NoForced : NoText #17ID : 19Format : UTF-8Codec ID : S_TEXT/UTF8Codec ID/Info : UTF-8 Plain TextDuration : 56 min 29 sBit rate : 37 b/sCount of elements : 603Stream size : 15.4 KiB (0%)Language : JapaneseDefault : NoForced : NoText #18ID : 20Format : UTF-8Codec ID : S_TEXT/UTF8Codec ID/Info : UTF-8 Plain TextDuration : 56 min 29 sBit rate : 52 b/sCount of elements : 596Stream size : 21.9 KiB (0%)Language : KoreanDefault : NoForced : NoText #19ID : 21Format : UTF-8Codec ID : S_TEXT/UTF8Codec ID/Info : UTF-8 Plain TextDuration : 56 min 29 sBit rate : 42 b/sCount of elements : 592Stream size : 17.6 KiB (0%)Language : MalayDefault : NoForced : NoText #20ID : 22Format : UTF-8Codec ID : S_TEXT/UTF8Codec ID/Info : UTF-8 Plain TextDuration : 56 min 28 sBit rate : 42 b/sCount of elements : 578Stream size : 17.5 KiB (0%)Language : Norwegian BokmalDefault : NoForced : NoText #21ID : 23Format : UTF-8Codec ID : S_TEXT/UTF8Codec ID/Info : UTF-8 Plain TextDuration : 56 min 29 sBit rate : 42 b/sCount of elements : 563Stream size : 17.6 KiB (0%)Language : DutchDefault : NoForced : NoText #22ID : 24Format : UTF-8Codec ID : S_TEXT/UTF8Codec ID/Info : UTF-8 Plain TextDuration : 56 min 29 sBit rate : 41 b/sCount of elements : 595Stream size : 17.2 KiB (0%)Language : PolishDefault : NoForced : NoText #23ID : 25Format : UTF-8Codec ID : S_TEXT/UTF8Codec ID/Info : UTF-8 Plain TextDuration : 56 min 29 sBit rate : 44 b/sCount of elements : 590Stream size : 18.4 KiB (0%)Language : PortugueseDefault : NoForced : NoText #24ID : 26Format : UTF-8Codec ID : S_TEXT/UTF8Codec ID/Info : UTF-8 Plain TextDuration : 56 min 29 sBit rate : 44 b/sCount of elements : 569Stream size : 18.2 KiB (0%)Title : BrazilianLanguage : PortugueseDefault : NoForced : NoText #25ID : 27Format : UTF-8Codec ID : S_TEXT/UTF8Codec ID/Info : UTF-8 Plain TextDuration : 56 min 29 sBit rate : 44 b/sCount of elements : 587Stream size : 18.6 KiB (0%)Language : RomanianDefault : NoForced : NoText #26ID : 28Format : UTF-8Codec ID : S_TEXT/UTF8Codec ID/Info : UTF-8 Plain TextDuration : 56 min 30 sBit rate : 70 b/sCount of elements : 596Stream size : 29.3 KiB (0%)Language : RussianDefault : NoForced : NoText #27ID : 29Format : UTF-8Codec ID : S_TEXT/UTF8Codec ID/Info : UTF-8 Plain TextDuration : 56 min 29 sBit rate : 45 b/sCount of elements : 497Stream size : 18.9 KiB (0%)Language : SwedishDefault : NoForced : NoText #28ID : 30Format : UTF-8Codec ID : S_TEXT/UTF8Codec ID/Info : UTF-8 Plain TextDuration : 56 min 29 sBit rate : 111 b/sCount of elements : 608Stream size : 46.1 KiB (0%)Language : ThaiDefault : NoForced : NoText #29ID : 31Format : UTF-8Codec ID : S_TEXT/UTF8Codec ID/Info : UTF-8 Plain TextDuration : 56 min 29 sBit rate : 43 b/sCount of elements : 591Stream size : 17.8 KiB (0%)Language : TurkishDefault : NoForced : NoText #30ID : 32Format : UTF-8Codec ID : S_TEXT/UTF8Codec ID/Info : UTF-8 Plain TextDuration : 56 min 29 sBit rate : 69 b/sCount of elements : 581Stream size : 28.6 KiB (0%)Language : UkrainianDefault : NoForced : NoText #31ID : 33Format : UTF-8Codec ID : S_TEXT/UTF8Codec ID/Info : UTF-8 Plain TextDuration : 56 min 29 sBit rate : 69 b/sCount of elements : 608Stream size : 28.7 KiB (0%)Language : VietnameseDefault : NoForced : NoText #32ID : 34Format : UTF-8Codec ID : S_TEXT/UTF8Codec ID/Info : UTF-8 Plain TextDuration : 56 min 29 sBit rate : 48 b/sCount of elements : 595Stream size : 20.0 KiB (0%)Title : SimplifiedLanguage : ChineseDefault : NoForced : NoText #33ID : 35Format : UTF-8Codec ID : S_TEXT/UTF8Codec ID/Info : UTF-8 Plain TextDuration : 56 min 40 sBit rate : 46 b/sCount of elements : 596Stream size : 19.3 KiB (0%)Title : TraditionalLanguage : ChineseDefault : NoForced : No Lost.in.Space.2018.S03.고화질.NF.WEBRip.DDP5.1.Atmos.x264-AGLET…
  • 인기 연관 검색어 구글 검색:    LOST 더토렌트    
  • 관련 자료(가나다순):    Ancient Aliens S16E02 The Lost Kingdom BLEAUHAUS    WWE Network Specials Sting The Lost Tape 고화질 Lo WEB h264-HEEL T…
  • 관련 자료(시간순):    WWE Network Specials Sting The Lost Tape 고화질 Lo WEB h264-HEEL T…    NCIS Hawaii S01E10 Lost 초고화질 AMZN WEBRip DDP5 1 x264-NTb
  • 같은 시각 자료:    The.Hot.Zone.S02.COMPLETE.고화질.AMZN.WEBRip.x264-GalaxyTV    CSI.Vegas.S01E09.HDTV.x264-PHOENiX

  직접 다운로드      무료 다운로드

[고화질] Lost.in.Space.2018.S03.고화질.NF.WEBRip.DDP5.1.Atmos.x264-AGLET > 외국티비

[고화질] Lost.in.Space.2018.S03.고화질.NF.WEBRip.DDP5.1.Atmos.x264-AGLET
  • Lost.in.Space.2018.S03.고화질.NF.WEBRip.DDP5.1.Atmos.x264-AGLET  로고   토렌트 링크 제공 서치엔진
  • Lost.in.Space.2018.S03.고화질.NF.WEBRip.DDP5.1.Atmos.x264-AGLET 로고   무제한 다운로드
  • Lost.in.Space.2018.S03.고화질.NF.WEBRip.DDP5.1.Atmos.x264-AGLET 로고   토렌트 커뮤니티 주주토렌트
  • Lost.in.Space.2018.S03.고화질.NF.WEBRip.DDP5.1.Atmos.x264-AGLET 로고   토렌트 커뮤니티 주주토렌트
  • Lost.in.Space.2018.S03.고화질.NF.WEBRip.DDP5.1.Atmos.x264-AGLET 로고   무료 다운로드
  • Lost.in.Space.2018.S03.고화질.NF.WEBRip.DDP5.1.Atmos.x264-AGLET 로고   토렌트 노리터 토렌트노리
  • Lost.in.Space.2018.S03.고화질.NF.WEBRip.DDP5.1.Atmos.x264-AGLET 로고   그거 알지? 토렌트알지
  • Screens... (click to enlarge): Infolink -> https://www.imdb.com/title/tt5232792/Quote:MediainfoVideoID : 1Format : AVCFormat/Info : Advanced Video CodecFormat profile : [email protected]Format settings : CABAC / 3 Ref FramesFormat settings, CABAC : YesFormat settings, Reference frames : 3 framesCodec ID : V_MPEG4/ISO/AVCDuration : 58 min 20 sBit rate mode : VariableBit rate : 2 853 kb/sNominal bit rate : 3 000 kb/sMaximum bit rate : 4 500 kb/sWidth : 1 280 pixelsHeight : 720 pixelsDisplay aspect ratio : 16:9Frame rate mode : ConstantFrame rate : 23.976 (24000/1001) FPSColor space : YUVChroma subsampling : 4:2:0Bit depth : 8 bitsScan type : ProgressiveBits/(Pixel*Frame) : 0.129Stream size : 1.16 GiB (79%)Writing library : x264 core 148 r2727 7d026e8Encoding settings : cabac=1 / ref=3 / deblock=1:0:0 / analyse=0x1:0x111 / me=umh / subme=10 / psy=1 / psy_rd=1.00:0.00 / mixed_ref=1 / me_range=24 / chroma_me=1 / trellis=2 / 8x8dct=0 / cqm=0 / deadzone=21,11 / fast_pskip=1 / chroma_qp_offset=-2 / threads=8 / lookahead_threads=1 / sliced_threads=0 / nr=0 / decimate=1 / interlaced=0 / bluray_compat=0 / stitchable=1 / constrained_intra=0 / bframes=2 / b_pyramid=0 / b_adapt=2 / b_bias=0 / direct=3 / weightb=1 / open_gop=0 / weightp=2 / keyint=250 / keyint_min=23 / scenecut=0 / intra_refresh=0 / rc_lookahead=48 / rc=2pass / mbtree=1 / bitrate=3000 / ratetol=1.0 / qcomp=0.50 / qpmin=6 / qpmax=51 / qpstep=4 / cplxblur=20.0 / qblur=0.5 / vbv_maxrate=4500 / vbv_bufsize=6000 / nal_hrd=vbr / filler=0 / ip_ratio=1.40 / aq=1:1.00Default : YesForced : NoAudioID : 2Format : E-AC-3 JOCFormat/Info : Enhanced AC-3 with Joint Object CodingCommercial name : Dolby Digital Plus with Dolby AtmosCodec ID : A_EAC3Duration : 58 min 20 sBit rate mode : ConstantBit rate : 768 kb/sChannel(s) : 6 channelsChannel layout : L R C LFE Ls RsSampling rate : 48.0 kHzFrame rate : 31.250 FPS (1536 SPF)Compression mode : LossyStream size : 320 MiB (21%)Language : EnglishService kind : Complete MainDefault : YesForced : NoComplexity index : 16Number of dynamic objects : 15Bed channel count : 1 channelBed channel configuration : LFEText #1ID : 3Format : UTF-8Codec ID : S_TEXT/UTF8Codec ID/Info : UTF-8 Plain TextDuration : 54 min 4 sBit rate : 49 b/sCount of elements : 597Stream size : 19.6 KiB (0%)Language : EnglishDefault : NoForced : NoText #2ID : 4Format : UTF-8Codec ID : S_TEXT/UTF8Codec ID/Info : UTF-8 Plain TextDuration : 54 min 30 sBit rate : 59 b/sCount of elements : 792Stream size : 23.7 KiB (0%)Title : SDHLanguage : EnglishDefault : NoForced : NoText #3ID : 5Format : UTF-8Codec ID : S_TEXT/UTF8Codec ID/Info : UTF-8 Plain TextDuration : 56 min 29 sBit rate : 76 b/sCount of elements : 593Stream size : 31.5 KiB (0%)Language : ArabicDefault : NoForced : NoText #4ID : 6Format : UTF-8Codec ID : S_TEXT/UTF8Codec ID/Info : UTF-8 Plain TextDuration : 56 min 30 sBit rate : 43 b/sCount of elements : 587Stream size : 17.9 KiB (0%)Language : CzechDefault : NoForced : NoText #5ID : 7Format : UTF-8Codec ID : S_TEXT/UTF8Codec ID/Info : UTF-8 Plain TextDuration : 56 min 29 sBit rate : 40 b/sCount of elements : 570Stream size : 16.7 KiB (0%)Language : DanishDefault : NoForced : NoText #6ID : 8Format : UTF-8Codec ID : S_TEXT/UTF8Codec ID/Info : UTF-8 Plain TextDuration : 56 min 29 sBit rate : 44 b/sCount of elements : 571Stream size : 18.3 KiB (0%)Language : GermanDefault : NoForced : NoText #7ID : 9Format : UTF-8Codec ID : S_TEXT/UTF8Codec ID/Info : UTF-8 Plain TextDuration : 56 min 29 sBit rate : 76 b/sCount of elements : 591Stream size : 31.8 KiB (0%)Language : GreekDefault : NoForced : NoText #8ID : 10Format : UTF-8Codec ID : S_TEXT/UTF8Codec ID/Info : UTF-8 Plain TextDuration : 56 min 28 sBit rate : 42 b/sCount of elements : 570Stream size : 17.6 KiB (0%)Language : SpanishDefault : NoForced : NoText #9ID : 11Format : UTF-8Codec ID : S_TEXT/UTF8Codec ID/Info : UTF-8 Plain TextDuration : 56 min 29 sBit rate : 42 b/sCount of elements : 591Stream size : 17.8 KiB (0%)Title : EuropeanLanguage : SpanishDefault : NoForced : NoText #10ID : 12Format : UTF-8Codec ID : S_TEXT/UTF8Codec ID/Info : UTF-8 Plain TextDuration : 56 min 29 sBit rate : 42 b/sCount of elements : 568Stream size : 17.6 KiB (0%)Language : FinnishDefault : NoForced : NoText #11ID : 13Format : UTF-8Codec ID : S_TEXT/UTF8Codec ID/Info : UTF-8 Plain TextDuration : 56 min 29 sBit rate : 43 b/sCount of elements : 552Stream size : 17.9 KiB (0%)Language : FrenchDefault : NoForced : NoText #12ID : 14Format : UTF-8Codec ID : S_TEXT/UTF8Codec ID/Info : UTF-8 Plain TextDuration : 56 min 38 sBit rate : 69 b/sCount of elements : 621Stream size : 28.7 KiB (0%)Language : HebrewDefault : NoForced : NoText #13ID : 15Format : UTF-8Codec ID : S_TEXT/UTF8Codec ID/Info : UTF-8 Plain TextDuration : 56 min 34 sBit rate : 39 b/sCount of elements : 597Stream size : 16.4 KiB (0%)Language : CroatianDefault : NoForced : NoText #14ID : 16Format : UTF-8Codec ID : S_TEXT/UTF8Codec ID/Info : UTF-8 Plain TextDuration : 56 min 30 sBit rate : 46 b/sCount of elements : 567Stream size : 19.4 KiB (0%)Language : HungarianDefault : NoForced : NoText #15ID : 17Format : UTF-8Codec ID : S_TEXT/UTF8Codec ID/Info : UTF-8 Plain TextDuration : 56 min 29 sBit rate : 44 b/sCount of elements : 591Stream size : 18.6 KiB (0%)Language : IndonesianDefault : NoForced : NoText #16ID : 18Format : UTF-8Codec ID : S_TEXT/UTF8Codec ID/Info : UTF-8 Plain TextDuration : 56 min 29 sBit rate : 49 b/sCount of elements : 591Stream size : 20.4 KiB (0%)Language : ItalianDefault : NoForced : NoText #17ID : 19Format : UTF-8Codec ID : S_TEXT/UTF8Codec ID/Info : UTF-8 Plain TextDuration : 56 min 29 sBit rate : 37 b/sCount of elements : 603Stream size : 15.4 KiB (0%)Language : JapaneseDefault : NoForced : NoText #18ID : 20Format : UTF-8Codec ID : S_TEXT/UTF8Codec ID/Info : UTF-8 Plain TextDuration : 56 min 29 sBit rate : 52 b/sCount of elements : 596Stream size : 21.9 KiB (0%)Language : KoreanDefault : NoForced : NoText #19ID : 21Format : UTF-8Codec ID : S_TEXT/UTF8Codec ID/Info : UTF-8 Plain TextDuration : 56 min 29 sBit rate : 42 b/sCount of elements : 592Stream size : 17.6 KiB (0%)Language : MalayDefault : NoForced : NoText #20ID : 22Format : UTF-8Codec ID : S_TEXT/UTF8Codec ID/Info : UTF-8 Plain TextDuration : 56 min 28 sBit rate : 42 b/sCount of elements : 578Stream size : 17.5 KiB (0%)Language : Norwegian BokmalDefault : NoForced : NoText #21ID : 23Format : UTF-8Codec ID : S_TEXT/UTF8Codec ID/Info : UTF-8 Plain TextDuration : 56 min 29 sBit rate : 42 b/sCount of elements : 563Stream size : 17.6 KiB (0%)Language : DutchDefault : NoForced : NoText #22ID : 24Format : UTF-8Codec ID : S_TEXT/UTF8Codec ID/Info : UTF-8 Plain TextDuration : 56 min 29 sBit rate : 41 b/sCount of elements : 595Stream size : 17.2 KiB (0%)Language : PolishDefault : NoForced : NoText #23ID : 25Format : UTF-8Codec ID : S_TEXT/UTF8Codec ID/Info : UTF-8 Plain TextDuration : 56 min 29 sBit rate : 44 b/sCount of elements : 590Stream size : 18.4 KiB (0%)Language : PortugueseDefault : NoForced : NoText #24ID : 26Format : UTF-8Codec ID : S_TEXT/UTF8Codec ID/Info : UTF-8 Plain TextDuration : 56 min 29 sBit rate : 44 b/sCount of elements : 569Stream size : 18.2 KiB (0%)Title : BrazilianLanguage : PortugueseDefault : NoForced : NoText #25ID : 27Format : UTF-8Codec ID : S_TEXT/UTF8Codec ID/Info : UTF-8 Plain TextDuration : 56 min 29 sBit rate : 44 b/sCount of elements : 587Stream size : 18.6 KiB (0%)Language : RomanianDefault : NoForced : NoText #26ID : 28Format : UTF-8Codec ID : S_TEXT/UTF8Codec ID/Info : UTF-8 Plain TextDuration : 56 min 30 sBit rate : 70 b/sCount of elements : 596Stream size : 29.3 KiB (0%)Language : RussianDefault : NoForced : NoText #27ID : 29Format : UTF-8Codec ID : S_TEXT/UTF8Codec ID/Info : UTF-8 Plain TextDuration : 56 min 29 sBit rate : 45 b/sCount of elements : 497Stream size : 18.9 KiB (0%)Language : SwedishDefault : NoForced : NoText #28ID : 30Format : UTF-8Codec ID : S_TEXT/UTF8Codec ID/Info : UTF-8 Plain TextDuration : 56 min 29 sBit rate : 111 b/sCount of elements : 608Stream size : 46.1 KiB (0%)Language : ThaiDefault : NoForced : NoText #29ID : 31Format : UTF-8Codec ID : S_TEXT/UTF8Codec ID/Info : UTF-8 Plain TextDuration : 56 min 29 sBit rate : 43 b/sCount of elements : 591Stream size : 17.8 KiB (0%)Language : TurkishDefault : NoForced : NoText #30ID : 32Format : UTF-8Codec ID : S_TEXT/UTF8Codec ID/Info : UTF-8 Plain TextDuration : 56 min 29 sBit rate : 69 b/sCount of elements : 581Stream size : 28.6 KiB (0%)Language : UkrainianDefault : NoForced : NoText #31ID : 33Format : UTF-8Codec ID : S_TEXT/UTF8Codec ID/Info : UTF-8 Plain TextDuration : 56 min 29 sBit rate : 69 b/sCount of elements : 608Stream size : 28.7 KiB (0%)Language : VietnameseDefault : NoForced : NoText #32ID : 34Format : UTF-8Codec ID : S_TEXT/UTF8Codec ID/Info : UTF-8 Plain TextDuration : 56 min 29 sBit rate : 48 b/sCount of elements : 595Stream size : 20.0 KiB (0%)Title : SimplifiedLanguage : ChineseDefault : NoForced : NoText #33ID : 35Format : UTF-8Codec ID : S_TEXT/UTF8Codec ID/Info : UTF-8 Plain TextDuration : 56 min 40 sBit rate : 46 b/sCount of elements : 596Stream size : 19.3 KiB (0%)Title : TraditionalLanguage : ChineseDefault : NoForced : No Lost.in.Space.2018.S03.고화질.NF.WEBRip.DDP5.1.Atmos.x264-AGLET…



Screens... (click to enlarge):








Infolink -> https://www.imdb.com/title/tt5232792/

Quote:

Mediainfo
Video
ID : 1
Format : AVC
Format/Info : Advanced Video Codec
Format profile : [email protected]
Format settings : CABAC / 3 Ref Frames
Format settings, CABAC : Yes
Format settings, Reference frames : 3 frames
Codec ID : V_MPEG4/ISO/AVC
Duration : 58 min 20 s
Bit rate mode : Variable
Bit rate : 2 853 kb/s
Nominal bit rate : 3 000 kb/s
Maximum bit rate : 4 500 kb/s
Width : 1 280 pixels
Height : 720 pixels
Display aspect ratio : 16:9
Frame rate mode : Constant
Frame rate : 23.976 (24000/1001) FPS
Color space : YUV
Chroma subsampling : 4:2:0
Bit depth : 8 bits
Scan type : Progressive
Bits/(Pixel*Frame) : 0.129
Stream size : 1.16 GiB (79%)
Writing library : x264 core 148 r2727 7d026e8
Encoding settings : cabac=1 / ref=3 / deblock=1:0:0 / analyse=0x1:0x111 / me=umh / subme=10 / psy=1 / psy_rd=1.00:0.00 / mixed_ref=1 / me_range=24 / chroma_me=1 / trellis=2 / 8x8dct=0 / cqm=0 / deadzone=21,11 / fast_pskip=1 / chroma_qp_offset=-2 / threads=8 / lookahead_threads=1 / sliced_threads=0 / nr=0 / decimate=1 / interlaced=0 / bluray_compat=0 / stitchable=1 / constrained_intra=0 / bframes=2 / b_pyramid=0 / b_adapt=2 / b_bias=0 / direct=3 / weightb=1 / open_gop=0 / weightp=2 / keyint=250 / keyint_min=23 / scenecut=0 / intra_refresh=0 / rc_lookahead=48 / rc=2pass / mbtree=1 / bitrate=3000 / ratetol=1.0 / qcomp=0.50 / qpmin=6 / qpmax=51 / qpstep=4 / cplxblur=20.0 / qblur=0.5 / vbv_maxrate=4500 / vbv_bufsize=6000 / nal_hrd=vbr / filler=0 / ip_ratio=1.40 / aq=1:1.00
Default : Yes
Forced : No

Audio
ID : 2
Format : E-AC-3 JOC
Format/Info : Enhanced AC-3 with Joint Object Coding
Commercial name : Dolby Digital Plus with Dolby Atmos
Codec ID : A_EAC3
Duration : 58 min 20 s
Bit rate mode : Constant
Bit rate : 768 kb/s
Channel(s) : 6 channels
Channel layout : L R C LFE Ls Rs
Sampling rate : 48.0 kHz
Frame rate : 31.250 FPS (1536 SPF)
Compression mode : Lossy
Stream size : 320 MiB (21%)
Language : English
Service kind : Complete Main
Default : Yes
Forced : No
Complexity index : 16
Number of dynamic objects : 15
Bed channel count : 1 channel
Bed channel configuration : LFE

Text #1
ID : 3
Format : UTF-8
Codec ID : S_TEXT/UTF8
Codec ID/Info : UTF-8 Plain Text
Duration : 54 min 4 s
Bit rate : 49 b/s
Count of elements : 597
Stream size : 19.6 KiB (0%)
Language : English
Default : No
Forced : No

Text #2
ID : 4
Format : UTF-8
Codec ID : S_TEXT/UTF8
Codec ID/Info : UTF-8 Plain Text
Duration : 54 min 30 s
Bit rate : 59 b/s
Count of elements : 792
Stream size : 23.7 KiB (0%)
Title : SDH
Language : English
Default : No
Forced : No

Text #3
ID : 5
Format : UTF-8
Codec ID : S_TEXT/UTF8
Codec ID/Info : UTF-8 Plain Text
Duration : 56 min 29 s
Bit rate : 76 b/s
Count of elements : 593
Stream size : 31.5 KiB (0%)
Language : Arabic
Default : No
Forced : No

Text #4
ID : 6
Format : UTF-8
Codec ID : S_TEXT/UTF8
Codec ID/Info : UTF-8 Plain Text
Duration : 56 min 30 s
Bit rate : 43 b/s
Count of elements : 587
Stream size : 17.9 KiB (0%)
Language : Czech
Default : No
Forced : No

Text #5
ID : 7
Format : UTF-8
Codec ID : S_TEXT/UTF8
Codec ID/Info : UTF-8 Plain Text
Duration : 56 min 29 s
Bit rate : 40 b/s
Count of elements : 570
Stream size : 16.7 KiB (0%)
Language : Danish
Default : No
Forced : No

Text #6
ID : 8
Format : UTF-8
Codec ID : S_TEXT/UTF8
Codec ID/Info : UTF-8 Plain Text
Duration : 56 min 29 s
Bit rate : 44 b/s
Count of elements : 571
Stream size : 18.3 KiB (0%)
Language : German
Default : No
Forced : No

Text #7
ID : 9
Format : UTF-8
Codec ID : S_TEXT/UTF8
Codec ID/Info : UTF-8 Plain Text
Duration : 56 min 29 s
Bit rate : 76 b/s
Count of elements : 591
Stream size : 31.8 KiB (0%)
Language : Greek
Default : No
Forced : No

Text #8
ID : 10
Format : UTF-8
Codec ID : S_TEXT/UTF8
Codec ID/Info : UTF-8 Plain Text
Duration : 56 min 28 s
Bit rate : 42 b/s
Count of elements : 570
Stream size : 17.6 KiB (0%)
Language : Spanish
Default : No
Forced : No

Text #9
ID : 11
Format : UTF-8
Codec ID : S_TEXT/UTF8
Codec ID/Info : UTF-8 Plain Text
Duration : 56 min 29 s
Bit rate : 42 b/s
Count of elements : 591
Stream size : 17.8 KiB (0%)
Title : European
Language : Spanish
Default : No
Forced : No

Text #10
ID : 12
Format : UTF-8
Codec ID : S_TEXT/UTF8
Codec ID/Info : UTF-8 Plain Text
Duration : 56 min 29 s
Bit rate : 42 b/s
Count of elements : 568
Stream size : 17.6 KiB (0%)
Language : Finnish
Default : No
Forced : No

Text #11
ID : 13
Format : UTF-8
Codec ID : S_TEXT/UTF8
Codec ID/Info : UTF-8 Plain Text
Duration : 56 min 29 s
Bit rate : 43 b/s
Count of elements : 552
Stream size : 17.9 KiB (0%)
Language : French
Default : No
Forced : No

Text #12
ID : 14
Format : UTF-8
Codec ID : S_TEXT/UTF8
Codec ID/Info : UTF-8 Plain Text
Duration : 56 min 38 s
Bit rate : 69 b/s
Count of elements : 621
Stream size : 28.7 KiB (0%)
Language : Hebrew
Default : No
Forced : No

Text #13
ID : 15
Format : UTF-8
Codec ID : S_TEXT/UTF8
Codec ID/Info : UTF-8 Plain Text
Duration : 56 min 34 s
Bit rate : 39 b/s
Count of elements : 597
Stream size : 16.4 KiB (0%)
Language : Croatian
Default : No
Forced : No

Text #14
ID : 16
Format : UTF-8
Codec ID : S_TEXT/UTF8
Codec ID/Info : UTF-8 Plain Text
Duration : 56 min 30 s
Bit rate : 46 b/s
Count of elements : 567
Stream size : 19.4 KiB (0%)
Language : Hungarian
Default : No
Forced : No

Text #15
ID : 17
Format : UTF-8
Codec ID : S_TEXT/UTF8
Codec ID/Info : UTF-8 Plain Text
Duration : 56 min 29 s
Bit rate : 44 b/s
Count of elements : 591
Stream size : 18.6 KiB (0%)
Language : Indonesian
Default : No
Forced : No

Text #16
ID : 18
Format : UTF-8
Codec ID : S_TEXT/UTF8
Codec ID/Info : UTF-8 Plain Text
Duration : 56 min 29 s
Bit rate : 49 b/s
Count of elements : 591
Stream size : 20.4 KiB (0%)
Language : Italian
Default : No
Forced : No

Text #17
ID : 19
Format : UTF-8
Codec ID : S_TEXT/UTF8
Codec ID/Info : UTF-8 Plain Text
Duration : 56 min 29 s
Bit rate : 37 b/s
Count of elements : 603
Stream size : 15.4 KiB (0%)
Language : Japanese
Default : No
Forced : No

Text #18
ID : 20
Format : UTF-8
Codec ID : S_TEXT/UTF8
Codec ID/Info : UTF-8 Plain Text
Duration : 56 min 29 s
Bit rate : 52 b/s
Count of elements : 596
Stream size : 21.9 KiB (0%)
Language : Korean
Default : No
Forced : No

Text #19
ID : 21
Format : UTF-8
Codec ID : S_TEXT/UTF8
Codec ID/Info : UTF-8 Plain Text
Duration : 56 min 29 s
Bit rate : 42 b/s
Count of elements : 592
Stream size : 17.6 KiB (0%)
Language : Malay
Default : No
Forced : No

Text #20
ID : 22
Format : UTF-8
Codec ID : S_TEXT/UTF8
Codec ID/Info : UTF-8 Plain Text
Duration : 56 min 28 s
Bit rate : 42 b/s
Count of elements : 578
Stream size : 17.5 KiB (0%)
Language : Norwegian Bokmal
Default : No
Forced : No

Text #21
ID : 23
Format : UTF-8
Codec ID : S_TEXT/UTF8
Codec ID/Info : UTF-8 Plain Text
Duration : 56 min 29 s
Bit rate : 42 b/s
Count of elements : 563
Stream size : 17.6 KiB (0%)
Language : Dutch
Default : No
Forced : No

Text #22
ID : 24
Format : UTF-8
Codec ID : S_TEXT/UTF8
Codec ID/Info : UTF-8 Plain Text
Duration : 56 min 29 s
Bit rate : 41 b/s
Count of elements : 595
Stream size : 17.2 KiB (0%)
Language : Polish
Default : No
Forced : No

Text #23
ID : 25
Format : UTF-8
Codec ID : S_TEXT/UTF8
Codec ID/Info : UTF-8 Plain Text
Duration : 56 min 29 s
Bit rate : 44 b/s
Count of elements : 590
Stream size : 18.4 KiB (0%)
Language : Portuguese
Default : No
Forced : No

Text #24
ID : 26
Format : UTF-8
Codec ID : S_TEXT/UTF8
Codec ID/Info : UTF-8 Plain Text
Duration : 56 min 29 s
Bit rate : 44 b/s
Count of elements : 569
Stream size : 18.2 KiB (0%)
Title : Brazilian
Language : Portuguese
Default : No
Forced : No

Text #25
ID : 27
Format : UTF-8
Codec ID : S_TEXT/UTF8
Codec ID/Info : UTF-8 Plain Text
Duration : 56 min 29 s
Bit rate : 44 b/s
Count of elements : 587
Stream size : 18.6 KiB (0%)
Language : Romanian
Default : No
Forced : No

Text #26
ID : 28
Format : UTF-8
Codec ID : S_TEXT/UTF8
Codec ID/Info : UTF-8 Plain Text
Duration : 56 min 30 s
Bit rate : 70 b/s
Count of elements : 596
Stream size : 29.3 KiB (0%)
Language : Russian
Default : No
Forced : No

Text #27
ID : 29
Format : UTF-8
Codec ID : S_TEXT/UTF8
Codec ID/Info : UTF-8 Plain Text
Duration : 56 min 29 s
Bit rate : 45 b/s
Count of elements : 497
Stream size : 18.9 KiB (0%)
Language : Swedish
Default : No
Forced : No

Text #28
ID : 30
Format : UTF-8
Codec ID : S_TEXT/UTF8
Codec ID/Info : UTF-8 Plain Text
Duration : 56 min 29 s
Bit rate : 111 b/s
Count of elements : 608
Stream size : 46.1 KiB (0%)
Language : Thai
Default : No
Forced : No

Text #29
ID : 31
Format : UTF-8
Codec ID : S_TEXT/UTF8
Codec ID/Info : UTF-8 Plain Text
Duration : 56 min 29 s
Bit rate : 43 b/s
Count of elements : 591
Stream size : 17.8 KiB (0%)
Language : Turkish
Default : No
Forced : No

Text #30
ID : 32
Format : UTF-8
Codec ID : S_TEXT/UTF8
Codec ID/Info : UTF-8 Plain Text
Duration : 56 min 29 s
Bit rate : 69 b/s
Count of elements : 581
Stream size : 28.6 KiB (0%)
Language : Ukrainian
Default : No
Forced : No

Text #31
ID : 33
Format : UTF-8
Codec ID : S_TEXT/UTF8
Codec ID/Info : UTF-8 Plain Text
Duration : 56 min 29 s
Bit rate : 69 b/s
Count of elements : 608
Stream size : 28.7 KiB (0%)
Language : Vietnamese
Default : No
Forced : No

Text #32
ID : 34
Format : UTF-8
Codec ID : S_TEXT/UTF8
Codec ID/Info : UTF-8 Plain Text
Duration : 56 min 29 s
Bit rate : 48 b/s
Count of elements : 595
Stream size : 20.0 KiB (0%)
Title : Simplified
Language : Chinese
Default : No
Forced : No

Text #33
ID : 35
Format : UTF-8
Codec ID : S_TEXT/UTF8
Codec ID/Info : UTF-8 Plain Text
Duration : 56 min 40 s
Bit rate : 46 b/s
Count of elements : 596
Stream size : 19.3 KiB (0%)
Title : Traditional
Language : Chinese
Default : No
Forced : No

Lost.in.Space.2018.S03.고화질.NF.WEBRip.DDP5.1.Atmos.x264-AGLET


▣ 아이비코리아 채널을 구독해주세요!
◆ 페이스북 : https://www.facebook.com/IBE.KR
◆ 인스타그램 : https://www.instagram.com/ibe.kr/
◆ 트위터 : https://twitter.com/ibekr_ts


이 게시판에서 관련된 자료 목록
웹하드 가입에서 다운로드까지 어렵지 않아요~

시작페이지

파일마루


웹하드 가입에서 다운로드까지 어렵지 않아요~

오늘의 업데이트

외국티비 인기글

Facebook Twitter GooglePlus KakaoStory NaverBand