The.Equalizer.2021.S02E07.고화질.HDTV.x264- > 외국티비
웹하드 가입에서 다운로드까지 어렵지 않아요~
웹하드 가입에서 다운로드까지 어렵지 않아요~
 [구글검색] 구글에서 더토렌트 검색 - 구글에서 토렌트를 검색하실 때에 검색어 뒤에 더토렌트를 꼭 붙여서 검색하세요.     사용자님의 다운로드가 완료될 때까지 저희가 함께하겠습니다. 편안하고 즐거운 시간 되십시오.

시작페이지

파일썬


[고화질] The.Equalizer.2021.S02E07.고화질.HDTV.x264-SYNCOPY 토렌트
  • 파일설명:     Screens... (click to enlarge): H7 RELEASE INFO The Equalizer 2021 S02E07 RELEASE DATE     :         2021-11-29 AIR DATE         :         2021-11-29 VIDEO BIT RATE   :          2475 KBPS VIDEO FPS        :             23.976 VIDEO RESOLUTION :           1280x720 AUDIO BIT RATE   :           384 KBPS AUDIO CHANNELS   :               6 CH DURATION         :       00:42:53.530 RAR COUNT        :           19x50 MB NOTES Ascii by H7Infolink -> https://www.imdb.com/title/tt11242246/Quote:MediainfoVideoID : 1Format : AVCFormat/Info : Advanced Video CodecFormat profile : [email protected]Format settings : CABAC / 5 Ref FramesFormat settings, CABAC : YesFormat settings, Reference frames : 5 framesCodec ID : V_MPEG4/ISO/AVCDuration : 42 min 53 sBit rate : 2 475 kb/sWidth : 1 280 pixelsHeight : 720 pixelsDisplay aspect ratio : 16:9Frame rate mode : ConstantFrame rate : 23.976 (24000/1001) FPSColor space : YUVChroma subsampling : 4:2:0Bit depth : 8 bitsScan type : ProgressiveBits/(Pixel*Frame) : 0.112Stream size : 759 MiB (87%)Writing library : x264 core 164 r3075 66a5bc1Encoding settings : cabac=1 / ref=5 / deblock=1:0:0 / analyse=0x3:0x113 / me=hex / subme=8 / psy=1 / psy_rd=1.00:0.00 / mixed_ref=1 / me_range=16 / chroma_me=1 / trellis=2 / 8x8dct=1 / cqm=0 / deadzone=21,11 / fast_pskip=1 / chroma_qp_offset=-2 / threads=18 / lookahead_threads=3 / sliced_threads=0 / nr=0 / decimate=1 / interlaced=0 / bluray_compat=0 / constrained_intra=0 / bframes=3 / b_pyramid=2 / b_adapt=1 / b_bias=0 / direct=3 / weightb=1 / open_gop=0 / weightp=2 / keyint=250 / keyint_min=23 / scenecut=40 / intra_refresh=0 / rc_lookahead=50 / rc=crf / mbtree=1 / crf=18.0 / qcomp=0.60 / qpmin=0 / qpmax=69 / qpstep=4 / ip_ratio=1.40 / aq=1:1.00Default : YesForced : NoColor range : LimitedMatrix coefficients : BT.709AudioID : 2Format : AC-3Format/Info : Audio Coding 3Commercial name : Dolby DigitalCodec ID : A_AC3Duration : 42 min 53 sBit rate mode : ConstantBit rate : 384 kb/sChannel(s) : 6 channelsChannel layout : L R C LFE Ls RsSampling rate : 48.0 kHzFrame rate : 31.250 FPS (1536 SPF)Compression mode : LossyStream size : 118 MiB (13%)Service kind : Complete MainDefault : YesForced : No The.Equalizer.2021.S02E07.720p.HDTV.x264-SYNCOPY…
  • 인기 연관 검색어 구글 검색:    The 더토렌트    TheChallenge 더토렌트    TheHottest0 더토렌트    TheHottest 더토렌트    The Boys S02E0 더토렌트    TheForever 더토렌트    they 더토렌트    TheForever0 더토렌트    Brothers 더토렌트    TheBirds 더토렌트    
  • 관련 자료(가나다순):    100 Days Wild S01E07 And Then There Were None 고화질 DISC WEBRip A…    RE-UP The X-Files (1993) Season 10 S10 (초고화질 WEB-DL x265 HEVC -…
  • 관련 자료(시간순):    Deadliest Catch S16E07 Into the Red DISC WEB-DL AAC2 0 x264-BOO…    How I Met Your Father S01E01 Pilot 초고화질 HULU WEBRip DDP5 1 x264…
  • 같은 시각 자료:    The.Equalizer.S02E07.WEBRip.x264-ION10    The.Hot.Zone.S02E02.고화질.WEBRip.x265-MiNX[TGx]

  직접 다운로드      무료 다운로드

[고화질] The.Equalizer.2021.S02E07.고화질.HDTV.x264-SYNCOPY > 외국티비

[고화질] The.Equalizer.2021.S02E07.고화질.HDTV.x264-SYNCOPY
  • The.Equalizer.2021.S02E07.고화질.HDTV.x264-SYNCOPY  로고   토렌트 링크 제공 서치엔진
  • The.Equalizer.2021.S02E07.고화질.HDTV.x264-SYNCOPY 로고   직접 다운로드
  • The.Equalizer.2021.S02E07.고화질.HDTV.x264-SYNCOPY 로고   빠른 열차에 탑승해 KTX토렌트
  • The.Equalizer.2021.S02E07.고화질.HDTV.x264-SYNCOPY 로고   토렌트의 최강자 토렌트씨
  • The.Equalizer.2021.S02E07.고화질.HDTV.x264-SYNCOPY 로고   무료 다운로드
  • The.Equalizer.2021.S02E07.고화질.HDTV.x264-SYNCOPY 로고   토렌트만 볼꺼야 토렌트뷰
  • The.Equalizer.2021.S02E07.고화질.HDTV.x264-SYNCOPY 로고   토렌트밖에 없어요! 토렌트온리
  • Screens... (click to enlarge): H7 RELEASE INFO The Equalizer 2021 S02E07 RELEASE DATE     :         2021-11-29 AIR DATE         :         2021-11-29 VIDEO BIT RATE   :          2475 KBPS VIDEO FPS        :             23.976 VIDEO RESOLUTION :           1280x720 AUDIO BIT RATE   :           384 KBPS AUDIO CHANNELS   :               6 CH DURATION         :       00:42:53.530 RAR COUNT        :           19x50 MB NOTES Ascii by H7Infolink -> https://www.imdb.com/title/tt11242246/Quote:MediainfoVideoID : 1Format : AVCFormat/Info : Advanced Video CodecFormat profile : [email protected]Format settings : CABAC / 5 Ref FramesFormat settings, CABAC : YesFormat settings, Reference frames : 5 framesCodec ID : V_MPEG4/ISO/AVCDuration : 42 min 53 sBit rate : 2 475 kb/sWidth : 1 280 pixelsHeight : 720 pixelsDisplay aspect ratio : 16:9Frame rate mode : ConstantFrame rate : 23.976 (24000/1001) FPSColor space : YUVChroma subsampling : 4:2:0Bit depth : 8 bitsScan type : ProgressiveBits/(Pixel*Frame) : 0.112Stream size : 759 MiB (87%)Writing library : x264 core 164 r3075 66a5bc1Encoding settings : cabac=1 / ref=5 / deblock=1:0:0 / analyse=0x3:0x113 / me=hex / subme=8 / psy=1 / psy_rd=1.00:0.00 / mixed_ref=1 / me_range=16 / chroma_me=1 / trellis=2 / 8x8dct=1 / cqm=0 / deadzone=21,11 / fast_pskip=1 / chroma_qp_offset=-2 / threads=18 / lookahead_threads=3 / sliced_threads=0 / nr=0 / decimate=1 / interlaced=0 / bluray_compat=0 / constrained_intra=0 / bframes=3 / b_pyramid=2 / b_adapt=1 / b_bias=0 / direct=3 / weightb=1 / open_gop=0 / weightp=2 / keyint=250 / keyint_min=23 / scenecut=40 / intra_refresh=0 / rc_lookahead=50 / rc=crf / mbtree=1 / crf=18.0 / qcomp=0.60 / qpmin=0 / qpmax=69 / qpstep=4 / ip_ratio=1.40 / aq=1:1.00Default : YesForced : NoColor range : LimitedMatrix coefficients : BT.709AudioID : 2Format : AC-3Format/Info : Audio Coding 3Commercial name : Dolby DigitalCodec ID : A_AC3Duration : 42 min 53 sBit rate mode : ConstantBit rate : 384 kb/sChannel(s) : 6 channelsChannel layout : L R C LFE Ls RsSampling rate : 48.0 kHzFrame rate : 31.250 FPS (1536 SPF)Compression mode : LossyStream size : 118 MiB (13%)Service kind : Complete MainDefault : YesForced : No The.Equalizer.2021.S02E07.720p.HDTV.x264-SYNCOPY…

Screens... (click to enlarge):





H7

RELEASE INFO

The Equalizer 2021 S02E07

RELEASE DATE     :         2021-11-29
AIR DATE         :         2021-11-29
VIDEO BIT RATE   :          2475 KBPS
VIDEO FPS        :             23.976
VIDEO RESOLUTION :           1280x720
AUDIO BIT RATE   :           384 KBPS
AUDIO CHANNELS   :               6 CH
DURATION         :       00:42:53.530
RAR COUNT        :           19x50 MB

NOTES

Ascii by H7

Infolink -> https://www.imdb.com/title/tt11242246/

Quote:

Mediainfo
Video
ID : 1
Format : AVC
Format/Info : Advanced Video Codec
Format profile : [email protected]
Format settings : CABAC / 5 Ref Frames
Format settings, CABAC : Yes
Format settings, Reference frames : 5 frames
Codec ID : V_MPEG4/ISO/AVC
Duration : 42 min 53 s
Bit rate : 2 475 kb/s
Width : 1 280 pixels
Height : 720 pixels
Display aspect ratio : 16:9
Frame rate mode : Constant
Frame rate : 23.976 (24000/1001) FPS
Color space : YUV
Chroma subsampling : 4:2:0
Bit depth : 8 bits
Scan type : Progressive
Bits/(Pixel*Frame) : 0.112
Stream size : 759 MiB (87%)
Writing library : x264 core 164 r3075 66a5bc1
Encoding settings : cabac=1 / ref=5 / deblock=1:0:0 / analyse=0x3:0x113 / me=hex / subme=8 / psy=1 / psy_rd=1.00:0.00 / mixed_ref=1 / me_range=16 / chroma_me=1 / trellis=2 / 8x8dct=1 / cqm=0 / deadzone=21,11 / fast_pskip=1 / chroma_qp_offset=-2 / threads=18 / lookahead_threads=3 / sliced_threads=0 / nr=0 / decimate=1 / interlaced=0 / bluray_compat=0 / constrained_intra=0 / bframes=3 / b_pyramid=2 / b_adapt=1 / b_bias=0 / direct=3 / weightb=1 / open_gop=0 / weightp=2 / keyint=250 / keyint_min=23 / scenecut=40 / intra_refresh=0 / rc_lookahead=50 / rc=crf / mbtree=1 / crf=18.0 / qcomp=0.60 / qpmin=0 / qpmax=69 / qpstep=4 / ip_ratio=1.40 / aq=1:1.00
Default : Yes
Forced : No
Color range : Limited
Matrix coefficients : BT.709

Audio
ID : 2
Format : AC-3
Format/Info : Audio Coding 3
Commercial name : Dolby Digital
Codec ID : A_AC3
Duration : 42 min 53 s
Bit rate mode : Constant
Bit rate : 384 kb/s
Channel(s) : 6 channels
Channel layout : L R C LFE Ls Rs
Sampling rate : 48.0 kHz
Frame rate : 31.250 FPS (1536 SPF)
Compression mode : Lossy
Stream size : 118 MiB (13%)
Service kind : Complete Main
Default : Yes
Forced : No

The.Equalizer.2021.S02E07.720p.HDTV.x264-SYNCOPY


▣ 아이비코리아 채널을 구독해주세요!
◆ 페이스북 : https://www.facebook.com/IBE.KR
◆ 인스타그램 : https://www.instagram.com/ibe.kr/
◆ 트위터 : https://twitter.com/ibekr_ts


이 게시판에서 관련된 자료 목록
웹하드 가입에서 다운로드까지 어렵지 않아요~

시작페이지

파일비트


웹하드 가입에서 다운로드까지 어렵지 않아요~

오늘의 업데이트

외국티비 인기글

Facebook Twitter GooglePlus KakaoStory NaverBand